Торрент файл
скачать торрент магнет ссылка Добавлен: 05 июн 2015, 11:03
Размер: 2.46 ГБ
Сидеров: 2
Личеров: 0
Автор

СообщениеДобавлено: 05 июн 2015, 11:03 

Не в сети
Зам. Админа
Аватара пользователя
Дата регистрации:
02 дек 2010, 12:39
Спасибо: 12623 / 214
Сообщения: 28012
Год выхода: 2015
Жанр: комедия
Режиссер: Армен Ананикян, Виталий Рейнгеверц
В ролях: Дмитрий Нагиев, Полина Гагарина, Константин Крюков, Михаил Галустян, Ян Цапник, Роман Ладнев, Константин Юшкевич, Дарья Храмцова, Наталья Костенева, Армен Ананикян

О фильме:
Макс — успешный скульптор. Он убежденный холостяк. У него нет отбоя от девушек и выгодных заказов. Привычный ход жизни нарушает собственная правая рука Макса. Она перестает слушаться его и ведет себя, как рука избалованной девушки. Друзья, клиенты и поклонницы думают, что Макс сошел с ума. Но причина не в этом, в его руку вселилась душа незнакомки. Справится ли герой одной левой?



Качество: WEB-DL [720p]
Видео: MPEG-4 AVC, 960@1280х720, 25 fps, 3973 Kb/s
Аудио: AC3, 48 KHz, 6 ch, 384 Kb/s
Продолжительность: 01:19:09
Перевод: Не требуется [iTunes]
Дополнительно: Присутствует навигация по главам

General
Unique ID : 202069856490874610152931537484881038215 (0x98053D1E8C600E2AA6CBB403C7EB8B87)
Complete name : E:torrentsdn0y.Lev0y.2015.O.WEB-DL.720p.mkv
Format : Matroska
Format version : Version 4 / Version 2
File size : 2.46 GiB
Duration : 1h 19mn
Overall bit rate : 4 445 Kbps
Encoded date : UTC 2015-06-04 18:10:27
Writing application : mkvmerge v6.9.1 ('Blue Panther') 64bit built on Apr 18 2014 18:23:38
Writing library : libebml v1.3.0 + libmatroska v1.4.1

Video
ID : 1
Format : AVC
Format/Info : Advanced Video Codec
Format profile : Main@L3.1
Format settings, CABAC : No
Format settings, ReFrames : 2 frames
Codec ID : V_MPEG4/ISO/AVC
Duration : 1h 19mn
Bit rate : 3 973 Kbps
Width : 960 pixels
Height : 720 pixels
Display aspect ratio : 16:9
Frame rate mode : Constant
Frame rate : 25.000 fps
Color space : YUV
Chroma subsampling : 4:2:0
Bit depth : 8 bits
Scan type : Progressive
Bits/(Pixel*Frame): 0.230
Stream size : 2.20 GiB (89%)
Language : English
Default : Yes
Forced : No
Color primaries : BT.709
Transfer characteristics : BT.709
Matrix coefficients : BT.709
Color range : Limited

Audio
ID : 2
Format : AC-3
Format/Info : Audio Coding 3
Mode extension : CM (complete main)
Format settings, Endianness : Big
Codec ID : A_AC3
Duration : 1h 19mn
Bit rate mode : Constant
Bit rate : 384 Kbps
Channel(s): 6 channels
Channel positions : Front: L C R, Side: L R, LFE
Sampling rate : 48.0 KHz
Bit depth : 16 bits
Compression mode : Lossy
Stream size : 217 MiB (9%)
Language : Russian
Default : Yes
Forced : No

Menu
00:00:00.000 : en:Глава 1
00:02:07.000 : en:Глава 2
00:06:31.000 : en:Глава 3
00:11:00.000 : en:Глава 4
00:14:53.000 : en:Глава 5
00:20:32.000 : en:Глава 6
00:24:57.000 : en:Глава 7
00:28:50.000 : en:Глава 8
00:32:40.000 : en:Глава 9
00:37:31.000 : en:Глава 10
00:41:04.000 : en:Глава 11
00:45:41.000 : en:Глава 12
00:50:57.000 : en:Глава 13
00:54:49.000 : en:Глава 14
00:58:27.000 : en:Глава 15
01:04:18.000 : en:Глава 16
01:09:21.000 : en:Глава 17














реклама партнёра


Вернуться к началу
 Профиль  
 
   Похожие торренты   Автор   Торрент   Размер 
В этой теме нет новых непрочитанных сообщений. Одной левой (Армен Ананикян, Виталий Рейнгеверц) [комедия, 2015] WEB-DL 1080p

Dracon

5567 | 118

3.02 ГБ

В этой теме нет новых непрочитанных сообщений. Одной левой (Армен Ананикян, Виталий Рейнгеверц) [комедия, 2015] WEB-DLRip

Dracon

44 | 1

1.37 ГБ

В этой теме нет новых непрочитанных сообщений. Команда [01-24 из 24] (Арменак Назикян, Армен Арутюнян-Елецкий, Игорь Драка) [Криминал, 2015] HDTV 720p

Dracon

177 | 201

34.14 ГБ

В этой теме нет новых непрочитанных сообщений. Орлова и Александров [01-16 из 16] (Виталий Москаленко) [Биография, мелодрама, 2015) HDTVRip 720p

Dracon

107 | 42

24.95 ГБ

В этой теме нет новых непрочитанных сообщений. Команда [01x01-24 из 24] (Арменак Назикян, Армен Арутюнян-Елецкий, Игорь Драка) [Криминал, 2015] HDTVRip

Dracon

223 | 56

12.88 ГБ

В этой теме нет новых непрочитанных сообщений. Команда [01-24 из 24] (Арменак Назикян, Армен Арутюнян-Елецкий, Игорь Драка) [Криминальный фильм, 2015] HDTV 1080i

Dracon

86 | 89

53.25 ГБ

В этой теме нет новых непрочитанных сообщений. 8 голов в одной сумке / 8 Heads in a Duffel Bag [комедия, криминал, 1997] HDRip, Dvo

salma3

8 | 1

1.46 ГБ


Начать новую тему Ответить на тему  [ 1 сообщение ] 




Для Мосгорсуда, Роскомнадзора и рекламодателей:: mosgorsud-torrent[собачка]yandex.ru