Торрент файл
скачать торрент магнет ссылка Добавлен: 30 май 2015, 22:28
Размер: 2.66 ГБ
Сидеров: 6
Личеров: 1
Автор

СообщениеДобавлено: 30 май 2015, 22:28 

Не в сети
Зам. Админа
Аватара пользователя
Дата регистрации:
02 дек 2010, 12:39
Спасибо: 12623 / 214
Сообщения: 28012
Год выхода: 2015
Жанр: Комедия
Режиссер: Клим Поплавский
В ролях: Наталия Медведева, Сергей Шнуров, Евгений Сморигин, Григорий Цветков, Артём Башенин, Алексей Гришин, Игорь Хрипунов, Андрей Федорцов, Константин Мурзенко, Анна Уколова

О фильме:
Что делать, если в вашем доме поселился родственник, недавно освободившийся из тюрьмы? И сделал жизнь вашей семьи невыносимой. А вы с женой случайно его убили. И соседский мальчик видел, как вы пытались закопать труп на заднем дворе. А инспектор ДПС обратил внимание на вашего неразговорчивого родственника в машине. Не очень представляя себе жизнь за решеткой, вы, наверное, должны избавиться от трупа... и, видимо, от маленького свидетеля ... и полицейскому вы тоже как-то не должны позволить рассказать, что у вас в машине не совсем живой человек и чужой ребенок...

Кинопоиск

Качество: WEB-DLRip [720p]
Видео: AVC, 960х690@1280x690, 25 fps, 3911 Kbit/s
Аудио: AC3, 48 kHz, 6 ch, 384 kbit/s
Продолжительность: 01:26:50
Перевод: Не требуется [iTunes]

DownloadsPrilichnye.ljudi.2015.WEB-DL.(720p).mkv
  General
    Unique ID : 250434538410958621585190141781357761524 (0xBC67F00AB62B7D9798917C22726E13F4)
    Complete name : DownloadsPrilichnye.ljudi.2015.WEB-DL.(720p).mkv
    Format : Matroska
    Format version : Version 4 / Version 2
    File size : 2.66 GiB
    Duration : 1h 26mn
    Overall bit rate : 4 383 Kbps
    Encoded date : UTC 2015-05-29 19:22:43
    Writing application : mkvmerge v6.9.1 ('Blue Panther') 64bit built on Apr 18 2014 18:23:38
    Writing library : libebml v1.3.0 + libmatroska v1.4.1
  Video #1
    ID : 1
    Format : AVC
    Format/Info : Advanced Video Codec
    Format profile : Main@L3.1
    Format settings, CABAC : No
    Format settings, ReFrames : 2 frames
    Codec ID : V_MPEG4/ISO/AVC
    Duration : 1h 26mn
    Bit rate : 3 911 Kbps
    Width : 960 pixels
    Height : 690 pixels
    Display aspect ratio : 1.85:1
    Frame rate mode : Constant
    Frame rate : 25.000 fps
    Color space : YUV
    Chroma subsampling : 4:2:0
    Bit depth : 8 bits
    Scan type : Progressive
    Bits/(Pixel*Frame) : 0.236
    Stream size : 2.37 GiB (89%)
    Language : English
    Default : Yes
    Forced : No
    Color primaries : BT.709
    Transfer characteristics : BT.709
    Matrix coefficients : BT.709
  Audio #2
    ID : 2
    Format : AC-3
    Format/Info : Audio Coding 3
    Mode extension : CM (complete main)
    Format settings, Endianness : Big
    Codec ID : A_AC3
    Duration : 1h 26mn
    Bit rate mode : Constant
    Bit rate : 384 Kbps
    Channel(s) : 6 channels
    Channel positions : Front: L C R, Side: L R, LFE
    Sampling rate : 48.0 KHz
    Bit depth : 16 bits
    Compression mode : Lossy
    Stream size : 238 MiB (9%)
    Language : Russian
    Default : Yes
    Forced : No
  Menu
    00:00:00.000 : en:1
    00:04:05.000 : en:2
    00:12:04.000 : en:3
    00:18:12.000 : en:4
    00:23:15.000 : en:5
    00:29:20.000 : en:6
    00:34:21.000 : en:7
    00:40:05.000 : en:8
    00:46:35.000 : en:9
    00:51:48.000 : en:10
    00:57:29.000 : en:11
    01:04:16.000 : en:12
    01:09:17.000 : en:13
    01:15:58.000 : en:14
    01:20:00.000 : en:15
    01:24:34.000 : en:16








реклама партнёра


Вернуться к началу
 Профиль  
 
   Похожие торренты   Автор   Торрент   Размер 
В этой теме нет новых непрочитанных сообщений. Приличные люди (Клим Поплавский) [Комедия, 2015] WEB-DLRip

Dracon

5 | 0

1.37 ГБ

В этой теме нет новых непрочитанных сообщений. Приличные люди  (Клим Поплавский) [Комедия, 26.03.2015] WEBRip

Dracon

1012 | 21

1.37 ГБ

В этой теме нет новых непрочитанных сообщений. Люди, места, вещи / People Places Things [Комедия, 2015] WEB-DLRip, Mvo [iTunes]

Dracon

61 | 3

1.37 ГБ

В этой теме нет новых непрочитанных сообщений. Люди / Humans [S01-02] [фантастика, драма, 2015-2016] WEB-DLRip, Mvo [LostFilm]

salma3

47 | 47

8.95 ГБ

В этой теме нет новых непрочитанных сообщений. Люди / Humans [02x01-04 из 08] (Фантастика, драма, 2016) WEB-DLRip 720p | IdeaFilm

marya111

50 | 48

5.88 ГБ

В этой теме нет новых непрочитанных сообщений. Люди / Humans [02x01-07 из 08] (Фантастика, драма, 2016) WEB-DLRip 720p | IdeaFilm

marya111

23 | 36

10.39 ГБ

В этой теме нет новых непрочитанных сообщений. Люди / Humans [season 1, episode 1-8 of 8] (Льюис Арнольд, Сэмюэл Донован, Чина Му-Ен) [фантастика, драма, 2015] WEB-DLRip, Mvo [NewStudio]

Dracon

30 | 17

4.3 ГБ


Начать новую тему Ответить на тему  [ 1 сообщение ] 




Для Мосгорсуда, Роскомнадзора и рекламодателей:: mosgorsud-torrent[собачка]yandex.ru