Торрент файл
скачать торрент магнет ссылка Добавлен: 23 май 2015, 10:34
Размер: 2.09 ГБ
Сидеров: 0
Личеров: 0
Автор

СообщениеДобавлено: 23 май 2015, 10:34 

Не в сети
Зам. Админа
Аватара пользователя
Дата регистрации:
02 дек 2010, 12:39
Спасибо: 12461 / 214
Сообщения: 27968
Год выхода: 2015
Жанр: Ужасы,Триллер
Режиссер: Дэвид Гелб
В ролях: Марк Дюпласс, Оливия Уайлд, Дональд Гловер, Эван Питерс, Сара Болгер, Рэй Уайз, Скотт Шелдон, Эмили Келавос, Джеймс Эрл, Эми Акино, Шон Т. Кришнан, Атор Тамрас, Като, Лииса Коэн, Дженнифер Флойд, Бруно Джойелло, Скотт Л. Трегер

О фильме:
Группа студентов разрабатывает так называемую сыворотку "Лазаря", которая может воскрешать из мёртвых. Первый эксперимент они провели на мёртвой собаке и всеобщему удивлению сыворотка сработала. Однако что то пошло не по плану и собака умерла. Ребята решили провести над неё ещё один эксперимент, во время которого аспирантка Зои получила разряд током и умерла. В отчаянии ей вводят сыворотку "Лазаря". Девушка ожила и с ней начали происходить непонятные вещи, девушка уже не такая какой была до смерти.


Качество: WEBRip[720p]
Видео: MPEG4/ISO/AVC, 1280х720, 23,976 fps, 3164 Кбит/сек
Аудио 1: Русский: АС3, 48 kHz, 2 ch, 256 kbps avg
Аудио 2: Английский: АС3, 48 kHz, 2 ch, 256 kbps avg
Субтитры: Арабские (вшитые, неотключаемые)
Продолжительность: 01:19:37
Перевод: Дублированный [Чистый звук] (Присутствуют около 3-х минут вставок звука с TS)
Общее
Уникальный идентификатор : 245203688357910111638202035699972533686 (0xB8788338FC1DC96D95188D5899676DB6)
Полное имя : D:ТОРРЕНТЫEffect.Lazarya.2015.D.WEBRip.720p.mkv
Формат : Matroska
Версия формата : Version 4 / Version 2
Размер файла : 2,09 Гбайт
Продолжительность : 1 ч. 19 м.
Общий поток : 3751 Кбит/сек
Дата кодирования : UTC 2015-05-21 20:19:54
Программа кодирования : mkvmerge v7.3.0 ('Nouages') 32bit built on Oct 22 2014 18:44:01
Библиотека кодирования : libebml v1.3.0 + libmatroska v1.4.1
_STATISTICS_WRITING_APP : mkvmerge v7.3.0 ('Nouages') 32bit built on Oct 22 2014 18:44:01
_STATISTICS_WRITING_DATE_UTC : 2015-05-21 20:19:54
_STATISTICS_TAGS : BPS DURATION NUMBER_OF_FRAMES NUMBER_OF_BYTES
DURATION : 01:19:37.312000000
NUMBER_OF_FRAMES : 149291
NUMBER_OF_BYTES : 152873984

Видео
Идентификатор : 1
Формат : MPEG-4 Visual
Профиль формата : Simple@L5
Параметр BVOP формата : Нет
Параметр QPel формата : Нет
Параметр GMC формата : Без точки перехода
Параметр матрицы формата : Default (H.263)
Идентификатор кодека : V_MS/VFW/FOURCC / XVID
Идентификатор кодека/Подсказка : XviD
Битрейт : 3164 Кбит/сек
Ширина : 1280 пикселей
Высота : 720 пикселей
Соотношение сторон : 16:9
Режим частоты кадров : Переменный
Цветовое пространство : YUV
Субдискретизация насыщенности : 4:2:0
Битовая глубина : 8 бит
Тип развёртки : Прогрессивная
Метод сжатия : С потерями
Библиотека кодирования : Lavc56.20.100
Default : Да
Forced : Нет

Аудио #1
Идентификатор : 2
Формат : AC-3
Формат/Информация : Audio Coding 3
Расширение режима : CM (complete main)
Параметр Endianness формата : Big
Идентификатор кодека : A_AC3
Продолжительность : 1 ч. 19 м.
Вид битрейта : Постоянный
Битрейт : 256 Кбит/сек
Каналы : 2 канала
Расположение каналов : Front: L R
Частота : 48,0 КГц
Битовая глубина : 16 бит
Метод сжатия : С потерями
Размер потока : 146 Мбайт (7%)
Default : Да
Forced : Нет

Аудио #2
Идентификатор : 3
Формат : AC-3
Формат/Информация : Audio Coding 3
Расширение режима : CM (complete main)
Параметр Endianness формата : Big
Идентификатор кодека : A_AC3
Продолжительность : 1 ч. 19 м.
Вид битрейта : Постоянный
Битрейт : 256 Кбит/сек
Каналы : 2 канала
Расположение каналов : Front: L R
Частота : 48,0 КГц
Битовая глубина : 16 бит
Метод сжатия : С потерями
Размер потока : 146 Мбайт (7%)
Default : Нет
Forced : Нет








реклама партнёра


Вернуться к началу
 Профиль  
 
   Похожие торренты   Автор   Торрент   Размер 
В этой теме нет новых непрочитанных сообщений. Эффект Лазаря / The Lazarus Effect (Дэвид Гелб) [Ужасы, триллер, 2015] WEBRip, dub [Чистый звук]

Dracon

4 | 0

1.37 ГБ

В этой теме нет новых непрочитанных сообщений. Эффект Лазаря / The Lazarus Effect (Дэвид Гелб) [2015, Ужасы, триллер, WEBRip | Чистый звук] Dub

Nickolas3435

790 | 17

703.56 МБ

В этой теме нет новых непрочитанных сообщений. Эффект Лазаря / The Lazarus Effect (Дэвид Гелб) [Ужасы, триллер, 2015] WEBRip 720p, dub [Звук с CAMRip]

Dracon

1324 | 12

1.21 ГБ

В этой теме нет новых непрочитанных сообщений. Эффект Лазаря / The Lazarus Effect (Дэвид Гелб) [Ужасы, триллер, 2015] WEBRip, dub [Звук с CAMRip]

Dracon

0 | 0

699.85 МБ

В этой теме нет новых непрочитанных сообщений. Эффект Лазаря / The Lazarus Effect (Дэвид Гелб) [Ужасы, триллер, 2015] BDRip 720p, Dub+Sub [iTunes]

Dracon

1315 | 85

3.11 ГБ

В этой теме нет новых непрочитанных сообщений. Эффект Лазаря / The Lazarus Effect (Дэвид Гелб) [Ужасы, триллер, 2015] CAMRip, dub

Dracon

13 | 6

1.36 ГБ

В этой теме нет новых непрочитанных сообщений. Эффект Лазаря / The Lazarus Effect (Дэвид Гелб) [Ужасы, триллер, 2015] BDRip, Dub [iTunes]

Dracon

930 | 72

1.42 ГБ


Начать новую тему Ответить на тему  [ 1 сообщение ] 




Для Мосгорсуда, Роскомнадзора и рекламодателей:: mosgorsud-torrent[собачка]yandex.ru