Торрент файл
скачать торрент магнет ссылка Добавлен: 12 апр 2015, 16:53
Размер: 1.46 ГБ
Сидеров: 403
Личеров: 16
Автор

СообщениеДобавлено: 12 апр 2015, 16:53 

Не в сети
Аватара пользователя
Дата регистрации:
11 апр 2015, 21:42
Спасибо: 17 / 0
Сообщения: 36
Год выхода: 2014
Жанр: драма, мелодрама
Режиссёр: Екатерина Шагалова
В ролях: Тимофей Каратаев, Ксения Лаврова-Глинка, Татьяна Лютаева, Алексей Барабаш, Дарья Екамасова, Мария Антонова, Георгий Губин

О фильме:
Сергей - молодой независимый тележурналист, уволен с работы за слишком смелый репортаж. Ирина - ведущая кабельного ТВ, живет в гражданском браке, не верит, что ее жизнь может измениться. Берцы — высокие армейские ботинки, которые Сергею подарил друг, сказав, что они «приводят куда надо». Сергея они приводят к Ирине. Жизнь обоих стремительно меняется к лучшему. Но вскоре берцы оказываются выброшенными на свалку.



Страна: Россия
Студия: Пятое июня
Продолжительность: 01:40:07
Перевод: Не требуется

Кодек: XviD
Качество: HDTVRip
Видео: XviD, 1890 Кбит/с, 720x400 (16:9), 25 кадр/с
Звук: Русский, Dolby AC3, 48000 Гц, 192 Кбит/с, 2 канала (Стерео)
Субтитры: Нет



General
Complete name : bePcY.2014.O.HDTVRip.avi
Format : AVI
Format/Info : Audio Video Interleave
File size : 1.46 GiB
Duration : 1h 40mn
Overall bit rate : 2 092 Kbps
Writing application : VirtualDubMod 1.5.10.2 (build 2540/release)
Writing library : VirtualDubMod build 2540/release

Video
ID : 0
Format : MPEG-4 Visual
Format profile : Advanced Simple@L5
Format settings, BVOP : 1
Format settings, QPel : No
Format settings, GMC : No warppoints
Format settings, Matrix : Default (MPEG)
Codec ID : XVID
Codec ID/Hint : XviD
Duration : 1h 40mn
Bit rate : 1 890 Kbps
Width : 720 pixels
Height : 400 pixels
Display aspect ratio : 16:9
Frame rate : 25.000 fps
Color space : YUV
Chroma subsampling : 4:2:0
Bit depth : 8 bits
Scan type : Progressive
Compression mode : Lossy
Bits/(Pixel*Frame) : 0.262
Stream size : 1.32 GiB (90%)
Writing library : XviD 1.2.1 (UTC 2008-12-04)

Audio
ID : 1
Format : AC-3
Format/Info : Audio Coding 3
Mode extension : CM (complete main)
Codec ID : 2000
Duration : 1h 40mn
Bit rate mode : Constant
Bit rate : 192 Kbps
Channel(s) : 2 channels
Channel positions : Front: L R
Sampling rate : 48.0 KHz
Bit depth : 16 bits
Compression mode : Lossy
Stream size : 138 MiB (9%)
Alignment : Aligned on interleaves
Interleave, duration : 40 ms (1.00 video frame)
Interleave, preload duration : 512 ms








реклама партнёра


Вернуться к началу
 Профиль Отправить личное сообщение  
 
   Похожие торренты   Автор   Торрент   Размер 
В этой теме нет новых непрочитанных сообщений. Берцы (Екатерина Шагалова) [драма, мелодрама, 2014] HDTV 1080i

Марик

18 | 6

6.63 ГБ

В этой теме нет новых непрочитанных сообщений. Тамарка [01-04 из 04] (Екатерина Шагалова) [Мелодрама, 2013] WEB-DL 720p

Dracon

168 | 28

4.93 ГБ

В этой теме нет новых непрочитанных сообщений. Мой близкий враг [Серия 1-4 из 4] (Екатерина Шагалова) [Мелодрама, 2015] SATRip

Dracon

350 | 24

2.46 ГБ

В этой теме нет новых непрочитанных сообщений. Мой близкий враг [01-02 из 02] (Екатерина Шагалова) [Мелодрама, 2015] HDTV 1080i

Dracon

75 | 10

12.35 ГБ

В этой теме нет новых непрочитанных сообщений. Тамарка [серии 1-4 из 4] (Екатерина Шагалова) [Мелодрама, комедия, 2015] WEB-DLRip

Dracon

3 | 4

2.14 ГБ

В этой теме нет новых непрочитанных сообщений. Сводные судьбы [Серия 1-4 из 4] (Екатерина Шагалова) [Мелодрама, 2015] SATRip

Dracon

15 | 3

2.36 ГБ

В этой теме нет новых непрочитанных сообщений. Екатерина [01-09 из 09] [Драма, мелодрама, история, 2014] HDTVRip

Dracon

571 | 110

5.58 ГБ


Начать новую тему Ответить на тему  [ 1 сообщение ] 




Для Мосгорсуда, Роскомнадзора и рекламодателей:: mosgorsud-torrent[собачка]yandex.ru