Торрент файл
скачать торрент магнет ссылка Добавлен: 15 мар 2015, 23:50
Размер: 5.26 ГБ
Сидеров: 16
Личеров: 6
Автор

СообщениеДобавлено: 15 мар 2015, 23:50 

Не в сети
Супермодератор
Аватара пользователя
Дата регистрации:
06 июн 2014, 07:51
Спасибо: 576 / 0
Сообщения: 2002

Информация о фильме
Оригинальное название: Красный лёд. Сага о хантах Югры
Год выхода: 2009
Жанр: Драма
Режиссер: Олег Фесенко
В ролях: Александр Лымарев, Марина Александрова, Александр Баширов, Дин Махаматдинов, Бибигуль Суюншалина, Михаил Евланов, Дарья Мороз, Валерий Зеленский, Александр Лобанов

О фильме:Действие картины начинается еще до революции со свадьбы дочери местного православного священника, Веры с одним из остяков. Возлюбленный девушки, Илья, не успевает к венчанию и покидает деревню Богоставленку. В 30-х годах, Илья, командир Красной Армии, возвращается в родные края во главе отряда красноармейцев. В Богоставленке основан оленеводческий отряд, который возглавляет председатель Чухновский. Когда из центра приходит сообщение о необходимости борьбы с представителями культа, Чухновский со своими людьми уничтожает святыню предков на священном острове. Ханты из Богоставленки становятся стойбищем в излучине Казыма, вскоре к ним присоединяются остяки из других селений, и тогда Илья получает приказ из центра вести войска на штурм восставших.


Страна: Россия
Студия: Югра-фильм
Продолжительность: 01:26:55
Язык: Русский

Файл
Кодек: MPEG-2
Качество: DVD-9
Видео: MPEG2, NTSC 16:9 (720x480) VBR, 29,970 кадра/сек
Звук: Русский DD 2.0 (384 Kbps)

Title:
Size: 5.26 Gb ( 5 510 696 KBytes ) - DVD-9
Enabled regions: 1, 2, 3, 4, 5, 6, 7, 8

VTS_01 :
Play Length: 01:26:55
Video: NTSC 16:9 (720x480) VBR, Auto Pan&Scan
Audio:
Russian (Dolby AC3, 2 ch)

Menu Video:
NTSC 4:3 (704x480) VBR
Menu English Language Unit :
Root Menu
Общее
Полное имя : D:ААА2КРАСНЫЙ ЛЕДVIDEO_TSVTS_01_1.VOB
Формат : MPEG-PS
Размер файла : 1000 Мбайт
Продолжительность : 16 м.
Режим общего битрейта : Переменный
Общий поток : 8282 Кбит/сек

Видео
Идентификатор : 224 (0xE0)
Формат : MPEG Video
Версия формата : Version 2
Профиль формата : Main@Main
Параметр BVOP формата : Да
Параметр матрицы формата : По умолчанию
Параметр GOP формата : M=3, N=13
Продолжительность : 16 м.
Вид битрейта : Переменный
Битрейт : 7733 Кбит/сек
Максимальный битрейт : 8816 Кбит/сек
Ширина : 720 пикселей
Высота : 480 пикселей
Соотношение сторон : 16:9
Частота кадров : 29,970 кадров/сек
Стандарт вещания : NTSC
Цветовое пространство : YUV
Субдискретизация насыщенности : 4:2:0
Битовая глубина : 8 бит
Тип развёртки : Прогрессивная
Метод сжатия : С потерями
Бит/(Пиксели*Кадры) : 0.747
TimeCode_FirstFrame : 00:00:00;00
TimeCode_Source : Group of pictures header
Размер потока : 934 Мбайт (93%)

Аудио
Идентификатор : 189 (0xBD)-128 (0x80)
Формат : AC-3
Формат/Информация : Audio Coding 3
Расширение режима : CM (complete main)
Параметр Endianness формата : Big
Режим смешивания : DVD-Video
Продолжительность : 16 м.
Вид битрейта : Постоянный
Битрейт : 384 Кбит/сек
Каналы : 2 канала
Расположение каналов : Front: L R
Частота : 48,0 КГц
Битовая глубина : 16 бит
Метод сжатия : С потерями
Размер потока : 46,4 Мбайт (5%)

Меню




реклама партнёра


Вернуться к началу
 Профиль Отправить личное сообщение  
 
   Похожие торренты   Автор   Торрент   Размер 
В этой теме нет новых непрочитанных сообщений. Красный рассвет / Red Dawn [Боевик, драма, 1984] BDRip, Dub

salma3

0 | 2

1.46 ГБ

В этой теме нет новых непрочитанных сообщений. Красный райдинг 1974 / Red Riding 1974 [детектив, 2009] BDRip 720p, Dvo+Sub

salma3

83 | 9

4.04 ГБ

В этой теме нет новых непрочитанных сообщений. Красный Дракон / Red Dragon [триллер, драма, детектив, 2002] BDRip, Dub

salma3

88 | 5

1.46 ГБ

В этой теме нет новых непрочитанных сообщений. Красный холм / Red Hill [триллер, драма, криминал, 2010] HDRip, Dvo

salma3

11 | 4

1.19 ГБ

В этой теме нет новых непрочитанных сообщений. Красный Дракон / Red Dragon [Триллер, драма, детектив, 2002] BDRip 1080p, Dub+Dvo+Avo+Sub

salma3

29 | 15

18.13 ГБ

В этой теме нет новых непрочитанных сообщений. Красный барон / Der Rote Baron [боевик, драма, военный, биография, 2008] HDRip, Dvo

salma3

32 | 4

1.45 ГБ

В этой теме нет новых непрочитанных сообщений. Красный медведь / Un oso rojo (Адриан Каэтано / Adrián Caetano) [2002г., триллер, драма, криминал, DVDRip] avo

Alfredovich

4 | 1

1.33 ГБ


Начать новую тему Ответить на тему  [ 1 сообщение ] 




Для Мосгорсуда, Роскомнадзора и рекламодателей:: mosgorsud-torrent[собачка]yandex.ru