Торрент файл
скачать торрент магнет ссылка Добавлен: 18 фев 2015, 20:54
Размер: 2.63 ГБ
Сидеров: 11
Личеров: 4
Автор

СообщениеДобавлено: 18 фев 2015, 20:54 

Не в сети
Зам. Админа
Аватара пользователя
Дата регистрации:
02 дек 2010, 12:39
Спасибо: 12461 / 214
Сообщения: 27968
Год выхода: 2015
Жанр: Комедия
Режиссер: Сарик Андреасян
В ролях: Таир Мамедов, Роман Юнусов, Дмитрий Кожома, Никита Джигурда, Настя Задорожная, Петр Винс, Вадим Цаллати, Наталья Рудова, Елена Борщева, Елена Беркова

 О фильме:России угрожает страшная опасность! Бывший сисадмин Секретного Военного Подразделения, уехавший в Америку, запустил вирус для взлома системы безопасности, что грозит всем нам страшными последствиями. Чтобы остановить программу, нужен пароль — слово, которое произносит бывшая подружка хакера, когда испытывает оргазм. Это всего лишь одно слово, но за последний год у злодея было десяток подружек, и с каждой был секс… и все они в Лос-Анджелесе! Спасти страну призваны главные специалисты по женщинам — Даниэль, Гоша и Виталик.

Качество: WEB-DL [720p]
Видео: MPEG4 Video (H264), 1280x544, 24.00fps, 3957 Кбит/сек
Аудио: АС3, 48000 Hz, 6 ch, 384 Кбит/с
Продолжительность: 01:25:06
Перевод: Не требуется [iTunes]
Общее
Уникальный идентификатор                 : 182942014582029816248817820992398382946 (0x89A159B39E40583593FA38FA01A35762)
Полное имя                               : D:prislanoeChto.Tv0r9t.Muzhch1ny.2.2015.O.WEB-DL.720p.mkv
Формат                                   : Matroska
Версия формата                           : Version 4 / Version 2
Размер файла                             : 2,63 Гбайт
Продолжительность                        : 1 ч. 25 м.
Общий поток                              : 4429 Кбит/сек
Дата кодирования                         : UTC 2015-02-18 12:03:20
Программа кодирования                    : mkvmerge v6.9.1 ('Blue Panther') 64bit built on Apr 18 2014 18:23:38
Библиотека кодирования                   : libebml v1.3.0 + libmatroska v1.4.1

Видео
Идентификатор                            : 1
Формат                                   : AVC
Формат/Информация                        : Advanced Video Codec
Профиль формата                          : Main@L3.1
Параметр CABAC формата                   : Нет
Параметр ReFrames формата                : 2 кадра
Идентификатор кодека                     : V_MPEG4/ISO/AVC
Продолжительность                        : 1 ч. 25 м.
Битрейт                                  : 3957 Кбит/сек
Ширина                                   : 1280 пикселей
Высота                                   : 544 пикселя
Соотношение сторон                       : 2,35:1
Режим частоты кадров                     : Постоянный
Частота кадров                           : 24,000 кадра/сек
Цветовое пространство                    : YUV
Субдискретизация насыщенности            : 4:2:0
Битовая глубина                          : 8 бит
Тип развёртки                            : Прогрессивная
Бит/(Пиксели*Кадры)                      : 0.237
Размер потока                            : 2,35 Гбайт (89%)
Язык                                     : English
Default                                  : Да
Forced                                   : Нет
Основные цвета                           : BT.709
Характеристики трансфера                 : BT.709
Коэффициенты матрицы                     : BT.709

Аудио
Идентификатор                            : 2
Формат                                   : AC-3
Формат/Информация                        : Audio Coding 3
Расширение режима                        : CM (complete main)
Параметр Endianness формата              : Big
Идентификатор кодека                     : A_AC3
Продолжительность                        : 1 ч. 25 м.
Вид битрейта                             : Постоянный
Битрейт                                  : 384 Кбит/сек
Каналы                                   : 6 каналов
Расположение каналов                     : Front: L C R, Side: L R, LFE
Частота                                  : 48,0 КГц
Битовая глубина                          : 16 бит
Метод сжатия                             : С потерями
Размер потока                            : 234 Мбайт (9%)
Язык                                     : Russian
Default                                  : Да
Forced                                   : Нет

Меню
00:00:00.000                             : en:глава 1
00:03:45.000                             : en:глава 2
00:14:58.000                             : en:глава 3
00:24:51.000                             : en:глава 4
00:35:38.000                             : en:глава 5
00:45:37.000                             : en:глава 6
00:55:33.000                             : en:глава 7
01:07:02.000                             : en:глава 8
01:16:26.000                             : en:глава 9
01:22:05.000                             : en:глава 10









реклама партнёра


Вернуться к началу
 Профиль  
 
   Похожие торренты   Автор   Торрент   Размер 
В этой теме нет новых непрочитанных сообщений. Что творят мужчины! 2 (Сарик Андреасян) [Комедия, 2015] Web-DLRip

Dracon

277 | 12

1.37 ГБ

В этой теме нет новых непрочитанных сообщений. Что творят мужчины! 2 (Сарик Андреасян) [Комедия, 2015] WEB-DL 1080p

Dracon

86 | 6

3.07 ГБ

В этой теме нет новых непрочитанных сообщений. Что творят мужчины! 2 (Сарик Андреасян) [2015, Комедия, DVDRip | Лицензия]

marya111

224 | 12

1.37 ГБ

В этой теме нет новых непрочитанных сообщений. Что творят мужчины! 2 [Комедия, 2015] DVDRip-AVC [Лицензия]

salma3

24 | 9

1.46 ГБ

В этой теме нет новых непрочитанных сообщений. Ограбление по-американски / American Heist (Сарик Андреасян) [триллер, криминал, драма, 2014] WEB-DLRip 720p, dub [Звук с TS]

Dracon

40 | 3

2.99 ГБ

В этой теме нет новых непрочитанных сообщений. Ограбление по-американски / American Heist (Сарик Андреасян) [триллер, криминал, драма, 2014] BDRip 720p, dub [Чистый звук]

Dracon

22 | 2

4.97 ГБ

В этой теме нет новых непрочитанных сообщений. Ограбление по-американски / American Heist (Сарик Андреасян) [триллер, криминал, драма, 2014] WEB-DLRip, Avo

Dracon

134 | 3

745 МБ


Начать новую тему Ответить на тему  [ 1 сообщение ] 




Для Мосгорсуда, Роскомнадзора и рекламодателей:: mosgorsud-torrent[собачка]yandex.ru