Торрент файл
скачать торрент магнет ссылка Добавлен: 25 янв 2015, 21:40
Размер: 1.46 ГБ
Сидеров: 524
Личеров: 21
Автор

СообщениеДобавлено: 25 янв 2015, 21:40 

Не в сети
Зам. Админа
Аватара пользователя
Дата регистрации:
02 дек 2010, 12:39
Спасибо: 12461 / 214
Сообщения: 27968
Год выхода: 2014
Жанр: Мелодрама, криминал
Режиссёр: Сергей Винокуров
В ролях: Анна Арефьева, Евгений Добряков, Анна Миклош, Юлия Кудояр, Юрий Чулков

О фильме: Принимая решение на полчаса подменить сестру Катю, бухгалтера благотворительного фонда, Зоя не догадывается, что очень скоро ее жизни будет угрожать реальная опасность: грабители нацелились на деньги фонда. Девушку спасает человек по имени Илья. Сам он серьезно ранен. А ведь пуля предназначалась не ему. Зоя хочет теперь только одного: чтобы молодой человек поправился, но получает сообщение, что его больше нет. Однако оказывается, что Илья жив и, конечно, ищет Зою...



Выпущено: Кинокомпания "Паламеда продакшн", Продюсерский центр "Фабула"
Продолжительность: 01:31:09
Перевод: Не требуется

Качество: HDTVRip [Исходник: HDTV (1080i)]
Видео: XviD, 720x400 (16:9), 2107 Кбит/с, 25 кадр/с
Аудио: Русский, Dolby AC3, 48000 Гц, 192 Кбит/с, 2 канала (Стерео)



General
Complete name : Hrani.ee.lyubov'.2014.HDTVRip.avi
Format : AVI
Format/Info : Audio Video Interleave
File size : 1.46 GiB
Duration : 1h 30mn
Overall bit rate : 2 307 Kbps
Writing application : VirtualDubMod 1.5.10.3 (build 2550/release)
Writing library : VirtualDubMod build 2550/release
Copyright : rip by ivandubskoj

Video
ID : 0
Format : MPEG-4 Visual
Format profile : Advanced Simple@L5
Format settings, BVOP : 1
Format settings, QPel : No
Format settings, GMC : No warppoints
Format settings, Matrix : Default (MPEG)
Codec ID : XVID
Codec ID/Hint : XviD
Duration : 1h 30mn
Bit rate : 2 107 Kbps
Width : 720 pixels
Height : 400 pixels
Display aspect ratio : 16:9
Frame rate : 25.000 fps
Color space : YUV
Chroma subsampling : 4:2:0
Bit depth : 8 bits
Scan type : Progressive
Compression mode : Lossy
Bits/(Pixel*Frame) : 0.293
Stream size : 1.34 GiB (91%)
Writing library : XviD 73

Audio
ID : 1
Format : AC-3
Format/Info : Audio Coding 3
Mode extension : CM (complete main)
Codec ID : 2000
Duration : 1h 30mn
Bit rate mode : Constant
Bit rate : 192 Kbps
Channel(s) : 2 channels
Channel positions : Front: L R
Sampling rate : 48.0 KHz
Bit depth : 16 bits
Compression mode : Lossy
Stream size : 125 MiB (8%)
Alignment : Split accross interleaves
Interleave, duration : 64 ms (1.60 video frames)
Interleave, preload duration : 500 ms
Title : Russian









реклама партнёра


Вернуться к началу
 Профиль  
 
   Похожие торренты   Автор   Торрент   Размер 
В этой теме нет новых непрочитанных сообщений. Храни её, любовь (Сергей Винокуров) [Мелодрама, криминал, 2014] HDTV 1080i

Dracon

108 | 9

5.48 ГБ

В этой теме нет новых непрочитанных сообщений. Все в порядке, это любовь / Просто это любовь / Ничего страшного, это любовь / It's Okay It's Love [01-16 из 16](Ким Кю Тхэ)[2014, мелодрама, романтика, комедия, психология, HDTVRip 720р]

Nickolas3435

9 | 5

18.51 ГБ

В этой теме нет новых непрочитанных сообщений. Любовь на четырех колесах (Сергей Влади) [мелодрама, 2015] HDTVRip 720p

Dracon

536 | 15

2.43 ГБ

В этой теме нет новых непрочитанных сообщений. Морские дьяволы. Смерч [02x01-62 из 64] (Сергей Винокуров, Евгений Малков...) [Боевик, детектив, криминал, 2015] SATRip

Dracon

19 | 7

33.32 ГБ

В этой теме нет новых непрочитанных сообщений. Морские дьяволы. Смерч [02x33-64 из 64] (Сергей Винокуров, Евгений Малков...) [Боевик, детектив, криминал, 2015] SATRip

Dracon

38 | 8

18.88 ГБ

В этой теме нет новых непрочитанных сообщений. Любовь и Роман [Мелодрама, 2014] HDTVRip

Dracon

583 | 26

1.37 ГБ

В этой теме нет новых непрочитанных сообщений. Верни мою любовь [01-24 из 24] (Евгений Баранов (II)) [Мелодрама, 2014] HDTVRip

Dracon

615 | 358

14.06 ГБ


Начать новую тему Ответить на тему  [ 1 сообщение ] 




Для Мосгорсуда, Роскомнадзора и рекламодателей:: mosgorsud-torrent[собачка]yandex.ru