Торрент файл
скачать торрент магнет ссылка Добавлен: 07 янв 2015, 00:36
Размер: 1.41 ГБ
Сидеров: 1343
Личеров: 54
Автор

СообщениеДобавлено: 07 янв 2015, 00:36 

Не в сети
Супермодератор
Аватара пользователя
Дата регистрации:
06 июн 2014, 07:51
Спасибо: 576 / 0
Сообщения: 2002
Информация о фильме
Название: Русский характер
Год выхода: 2014
Жанр: драма, криминал
Режиссер: Александр Якимчук
В ролях: Александр Фисенко, Сергей Никоненко, Евгений Бакалов, Наталья Мартынова, Александра Никифорова, Любовь Завадская, Кирилл Полухин, Егор Баринов, Глеб Степан Каллистов, Витас Эйзенах

О фильме:
2013 год, Украина. Военный моряк Максим Фадеев приезжает из Санкт-Петербурга в Крым, получив телеграмму о смерти деда. На полуострове прошло детство Максима, отсюда он уехал поступать в Суворовское училище, здесь живут его друзья и близкие… Максим узнает, что расположенный на берегу моря поселок терроризирует банда некоего Волощука, которого финансирует олигарх Юрий Гаджало. Цель — выжить из поселка местных жителей, снести все и построить на этом месте дорогой отель с ресторанами и причалом для катеров. Фадеев встает на защиту жителей поселка, что приводит к конфликту с милицией, закрывающей глаза на бесчинства бандитов и даже покрывающей их. Вскоре местные жители, которые были запуганы и не сопротивлялись беззаконию, начинают помогать Фадееву в его борьбе с бандой.



Страна: Россия
Продолжительность: 01:27:42
Перевод: не требуется
Файл
Качество: DVBRip-AVC
Видео: High@L4.1, 960х540 , 25 fps, ~2100 kbps
Звук: 48 kHz, AC3, 2 ch, ~192.00 kbps

General
Unique ID : 201553442638262458546148798813796053765 (0x97A1C7F35C4977819B5CD8805AD83305)
Complete name : E:Russkij.Harakter.2014.DVBRIP-AVC.[-=DoMiNo=-].mkv
Format : Matroska
Format version : Version 4 / Version 2
File size : 1.41 GiB
Duration : 1h 27mn
Overall bit rate : 2 294 Kbps
Encoded date : UTC 2015-01-04 18:03:13
Writing application : mkvmerge v7.4.0 ('Circles') 64bit built on Dec 12 2014 12:19:56
Writing library : libebml v1.3.0 + libmatroska v1.4.1
DURATION : 01:27:41.952000000
NUMBER_OF_FRAMES : 164436
NUMBER_OF_BYTES : 126286848
_STATISTICS_WRITING_APP : mkvmerge v7.4.0 ('Circles') 64bit built on Dec 12 2014 12:19:56
_STATISTICS_WRITING_DATE_UT : 2015-01-04 18:03:13
_STATISTICS_TAGS : BPS DURATION NUMBER_OF_FRAMES NUMBER_OF_BYTES
Video
ID : 1
Format : AVC
Format/Info : Advanced Video Codec
Format profile : High@L4.1
Format settings, CABAC : Yes
Format settings, ReFrames : 10 frames
Codec ID : V_MPEG4/ISO/AVC
Duration : 1h 27mn
Bit rate : 2 100 Kbps
Width : 960 pixels
Height : 540 pixels
Display aspect ratio : 16:9
Frame rate mode : Constant
Frame rate : 25.000 fps
Color space : YUV
Chroma subsampling : 4:2:0
Bit depth : 8 bits
Scan type : Progressive
Bits/(Pixel*Frame) : 0.162
Stream size : 1.26 GiB (90%)
Writing library : x264 core 142 r2491M 24e4fed
Encoding settings : cabac=1 / ref=10 / deblock=1:-3:-3 / analyse=0x3:0x133 / me=umh / subme=11 / psy=1 / psy_rd=1,00:0,70 / mixed_ref=1 / me_range=32 / chroma_me=1 / trellis=2 / 8x8dct=1 / cqm=0 / deadzone=21,11 / fast_pskip=0 / chroma_qp_offset=-3 / threads=16 / lookahead_threads=2 / sliced_threads=0 / nr=0 / decimate=1 / interlaced=0 / bluray_compat=0 / constrained_intra=0 / bframes=9 / b_pyramid=2 / b_adapt=2 / b_bias=0 / direct=3 / weightb=1 / open_gop=0 / weightp=2 / keyint=250 / keyint_min=25 / scenecut=40 / intra_refresh=0 / rc=2pass / mbtree=0 / bitrate=2100 / ratetol=1,0 / qcomp=0,60 / qpmin=1 / qpmax=69 / qpstep=4 / cplxblur=20,0 / qblur=0,5 / ip_ratio=1,40 / pb_ratio=1,30 / aq=1:1,00
Language : Russian
Default : Yes
Forced : No
Color primaries : BT.601 PAL
Transfer characteristics : BT.470 System B, BT.470 System G
Matrix coefficients : BT.601
Color range : Limited
DURATION : 01:27:41.920000000
NUMBER_OF_FRAMES : 131548
NUMBER_OF_BYTES : 1381547330
_STATISTICS_WRITING_APP : mkvmerge v7.4.0 ('Circles') 64bit built on Dec 12 2014 12:19:56
_STATISTICS_WRITING_DATE_UT : 2015-01-04 18:03:13
_STATISTICS_TAGS : BPS DURATION NUMBER_OF_FRAMES NUMBER_OF_BYTES
Audio
ID : 2
Format : AC-3
Format/Info : Audio Coding 3
Mode extension : CM (complete main)
Format settings, Endianness : Big
Codec ID : A_AC3
Duration : 1h 27mn
Bit rate mode : Constant
Bit rate : 192 Kbps
Channel(s) : 2 channels
Channel positions : Front: L R
Sampling rate : 48.0 KHz
Bit depth : 16 bits
Compression mode : Lossy
Delay relative to video : -83ms
Stream size : 120 MiB (8%)
Language : Russian
Default : Yes
Forced : No




реклама партнёра


Вернуться к началу
 Профиль Отправить личное сообщение  
 
   Похожие торренты   Автор   Торрент   Размер 
В этой теме нет новых непрочитанных сообщений. Белая ночь [01-04 из 04] (Александр Якимчук) [Военный, 2014] HDTV 1080i

Dracon

269 | 27

13.18 ГБ

В этой теме нет новых непрочитанных сообщений. Тайный город (Сезон 1-2, Серия 1-16 из 16) (Александр Мохов) [2014, Фэнтези,ужасы, фантастика, драма, вампиры, экранизация, DVBRip-AVC]

Враг Нароода

65 | 24

17.87 ГБ

В этой теме нет новых непрочитанных сообщений. Мужские каникулы (Серия 1-4 из 4) Леонид Белозорович) ( [2014, Боевик, драма, криминал, DVBRip-AVC]

Враг Нароода

18 | 3

4.35 ГБ

В этой теме нет новых непрочитанных сообщений. Иные / 4440 / 444 [1 сезон: 1-16 серии из 16] (Александр Якимчук) [Мистическая драма с элементами детектива, 2015] SATRip

Dracon

95 | 19

9.86 ГБ

В этой теме нет новых непрочитанных сообщений. Белая ночь [01-04 из 04] (Александр Якимчук) [Военный, 2015] HDTVRip 720p

Dracon

982 | 115

4.69 ГБ

В этой теме нет новых непрочитанных сообщений. Белая ночь [Серии 1-4 из 4] (Александр Якимчук) [Военный, 2015] HDTVRip

Dracon

31 | 4

2.15 ГБ

В этой теме нет новых непрочитанных сообщений. Путин / Крис Хатчинс, Александр Коробко [2014 / Русский / FB2]

Dracon

17 | 4

4.95 МБ


Начать новую тему Ответить на тему  [ 1 сообщение ] 




Для Мосгорсуда, Роскомнадзора и рекламодателей:: mosgorsud-torrent[собачка]yandex.ru