Торрент файл
скачать торрент магнет ссылка Добавлен: 11 дек 2014, 11:18
Размер: 2.57 ГБ
Сидеров: 5
Личеров: 3
Автор

СообщениеДобавлено: 11 дек 2014, 11:18 

Не в сети
Зам. Админа
Аватара пользователя
Дата регистрации:
02 дек 2010, 12:39
Спасибо: 12623 / 214
Сообщения: 28012
Год выхода: 2014
Жанр: Драма, комедия
Режиссер: Сергей Ольденбург-Свинцов
В ролях: Анна Чиповская, Антон Шагин, Кирилл Кяро, Роман Виктюк, Анна Старшенбаум, Кирилл Грацинский, Игорь Сергеев, Лидия Федосеева-Шукшина, Александр Баширов, Александр Песков

О фильме:
Кого только не встретишь в московских ресторанах! Вам кажется — люди приходят сюда, чтобы насладиться вкусной едой или ароматным кофе с сигаретой? Отнюдь… Они приходят в рестораны, потому что здесь кипит бурная жизнь! Здесь покупают и продают кофейные плантации, здесь орудуют ловкие карманники и хладнокровные убийцы, здесь пишут диссертации о многообразии сексуальных отношений в мире насекомых… Здесь в укромных местах возникают мимолетные связи, здесь находят свою единственную любовь или расстаются навсегда.
Качество: WEB-DL [720p]
Видео: AVC, 960x540@1280x540,25.000 fps,3 904 kbit/s
Аудио: AC3, 48000 Hz,6 каналов,384 kbit/s
Продолжительность:  01:23:58
Перевод: Не требуется

General
Unique ID                      : 253381344460771438172843630685649433133 (0xBE9F78CC1E7A9FBEA6D93F77ABB0F22D)
Complete name                  : E:Фильмы 2Sex, кофе, сигареты.2014.WEB-DL.720p.mkv
Format                         : Matroska
Format version                 : Version 4 / Version 2
File size                      : 2.57 GiB
Duration                       : 1h 23mn
Overall bit rate               : 4 375 Kbps
Encoded date                   : UTC 2014-12-10 19:54:59
Writing application            : mkvmerge v6.9.1 ('Blue Panther') 64bit built on Apr 18 2014 18:23:38
Writing library                : libebml v1.3.0 + libmatroska v1.4.1

Video
ID                             : 1
Format                         : AVC
Format/Info                    : Advanced Video Codec
Format profile                 : Main@L3.1
Format settings, CABAC         : No
Format settings, ReFrames      : 2 frames
Codec ID                       : V_MPEG4/ISO/AVC
Duration                       : 1h 23mn
Bit rate                       : 3 904 Kbps
Width                          : 960 pixels
Height                         : 540 pixels
Display aspect ratio           : 2.40:1
Frame rate mode                : Constant
Frame rate                     : 25.000 fps
Color space                    : YUV
Chroma subsampling             : 4:2:0
Bit depth                      : 8 bits
Scan type                      : Progressive
Bits/(Pixel*Frame)             : 0.301
Stream size                    : 2.29 GiB (89%)
Language                       : English
Default                        : Yes
Forced                         : No
Color primaries                : BT.709
Transfer characteristics       : BT.709
Matrix coefficients            : BT.709

Audio
ID                             : 2
Format                         : AC-3
Format/Info                    : Audio Coding 3
Mode extension                 : CM (complete main)
Format settings, Endianness    : Big
Codec ID                       : A_AC3
Duration                       : 1h 23mn
Bit rate mode                  : Constant
Bit rate                       : 384 Kbps
Channel(s)                     : 6 channels
Channel positions              : Front: L C R, Side: L R, LFE
Sampling rate                  : 48.0 KHz
Bit depth                      : 16 bits
Compression mode               : Lossy
Stream size                    : 231 MiB (9%)
Language                       : Russian
Default                        : Yes
Forced                         : No

Menu
00:00:00.000                   : en:Глава 1
00:01:25.000                   : en:Глава 2
00:06:50.000                   : en:Глава 3
00:12:05.000                   : en:Глава 4
00:19:10.000                   : en:Глава 5
00:26:13.000                   : en:Глава 6
00:34:15.000                   : en:Глава 7
00:37:18.000                   : en:Глава 8
00:45:23.000                   : en:Глава 9
00:49:52.000                   : en:Глава 10
00:57:40.000                   : en:Глава 11
01:06:03.000                   : en:Глава 12
01:12:15.000                   : en:Глава 13
01:18:41.000                   : en:Глава 14









реклама партнёра


Вернуться к началу
 Профиль  
 
   Похожие торренты   Автор   Торрент   Размер 
В этой теме нет новых непрочитанных сообщений. Sex, кофе, сигареты [Драма, комедия, 2014] WEB-DLRip

Dracon

1970 | 63

1.36 ГБ

В этой теме нет новых непрочитанных сообщений. Кофе и сигареты / Coffee and Cigarettes [драма, комедия, музыка, 2003] HDRip, Dvo [НТН]

salma3

76 | 12

1.45 ГБ

В этой теме нет новых непрочитанных сообщений. Любовь и сигареты / Romance & Cigarettes [Мюзикл, мелодрама, комедия, 2005] HDTV 720p, Dub+Sub

salma3

48 | 18

4.71 ГБ

В этой теме нет новых непрочитанных сообщений. Цвет кофе с молоком / Moka (Фридерик Мерму / Frederic Mermoud) [2016г., Франция, драма, WEBRip 720p] Sub

Alfredovich

23 | 7

1.62 ГБ

В этой теме нет новых непрочитанных сообщений. Самба / Samba [драма, комедия, 2014] BDRip 720p, Dub+Sub

salma3

12 | 41

5.95 ГБ

В этой теме нет новых непрочитанных сообщений. Мул / The Mule [Криминал, Комедия, Драма, 2014] BDRip 720p, dvo+sub

Dracon

1 | 2

4.7 ГБ

В этой теме нет новых непрочитанных сообщений. Пациенты (Элла Омельченко) [драма, Комедия, 2014] WEB-DL 720p [iTunes]

Dracon

496 | 16

2.67 ГБ


Начать новую тему Ответить на тему  [ 1 сообщение ] 




Для Мосгорсуда, Роскомнадзора и рекламодателей:: mosgorsud-torrent[собачка]yandex.ru