Торрент файл
скачать торрент магнет ссылка Добавлен: 05 авг 2014, 23:18
Размер: 746.64 МБ
Сидеров: 35
Личеров: 10
Автор

СообщениеДобавлено: 05 авг 2014, 23:18 

Не в сети
Супермодератор
Аватара пользователя
Дата регистрации:
06 июн 2014, 07:51
Спасибо: 619 / 0
Сообщения: 2001
Страна: Россия / Мосфильм
Жанр: драма
Год выпуска: 2012
Продолжительность: 01:29:38
Перевод: Не требуется
Cубтитры: нет
Оригинальная аудиодорожка: русский
Режиссер: Александр Цацуев
В ролях: Сергей Шнырев, Мария Баева, Александр Пашутин, Артем Панчик, Владимир Панчик, Юлия Галкина, Елена Шилова, Тимофей Каратаев, Сергей Малюгов, Олег Харитонов

Описание: Эта история, основанная на реальных событиях, рассказывает о жизни знаменитого испанского летчика Хосе Фернандеса. В конце тридцатых годов двадцатого века он приехал в СССР для службы в Красной Армии. Бравому летчику удается пройти всю Вторую мировую войну и остаться в живых. На непростом пути войны Хосе встречает русскую девушку Машу, с которой у него завязывается долгий роман. Ради своей любви летчик решает остаться в Советском Союзе. Но в то время интернациональные браки не слишком приветствовались властями. Они вынуждают Хосе уехать в Испанию, даже несмотря на то, что его возлюбленная ждет ребенка. Но через много лет внуку Хосе, ставшему авиамехаником, суждено будет участвовать в продолжении истории его предка.



Качество: DVDRip / DVD5 R5 от «Lizard Cinema Trade»
Формат: AVI
Видео: 720x304 (2.35:1), 25.000 fps, XviD, ~1027 kbps avg, 0.188 bit/pix
Аудио: 48 kHz, МР3, 2 ch, 128 kbps, русский

Общее
Полное имя : Ispanets.2012.O.DVDRip.745MB_[New-Team]_by_avproh.avi
Формат : AVI
Формат/Информация : Audio Video Interleave
Размер файла : 747 Мбайт
Продолжительность : 1 ч. 29 м.
Общий поток : 1165 Кбит/сек
Программа кодирования : VirtualDubMod 1.5.10.3 | http://www.virtualdub-fr.org || (build 2550/release)
Библиотека кодирования : VirtualDubMod build 2550/release

Видео
Идентификатор : 0
Формат : MPEG-4 Visual
Профиль формата : Advanced Simple@L5
Параметр BVOP формата : 1
Параметр QPel формата : Нет
Параметр GMC формата : Без точки перехода
Параметр матрицы формата : Выборочная
Идентификатор кодека : XVID
Идентификатор кодека/Подсказка : XviD
Продолжительность : 1 ч. 29 м.
Битрейт : 1027 Кбит/сек
Ширина : 720 пикселей
Высота : 304 пикселя
Соотношение сторон : 2,35:1
Частота кадров : 25,000 кадров/сек
Цветовое пространство : YUV
Субдискретизация насыщенности : 4:2:0
Битовая глубина : 8 бит
Тип развёртки : Прогрессивная
Метод сжатия : С потерями
Бит/(Пиксели*Кадры) : 0.188
Размер потока : 658 Мбайт (88%)
Библиотека кодирования : XviD 73

Аудио
Идентификатор : 1
Формат : MPEG Audio
Версия формата : Version 1
Профиль формата : Layer 3
Идентификатор кодека : 55
Идентификатор кодека/Подсказка : MP3
Продолжительность : 1 ч. 29 м.
Вид битрейта : Постоянный
Битрейт : 128 Кбит/сек
Каналы : 2 канала
Частота : 48,0 КГц
Метод сжатия : С потерями
Размер потока : 82,1 Мбайт (11%)
Выравнивание : Соединение по промежуткам
Продолжительность промежутка : 40 мс. (1,00 видеокадр)
Время предзагрузки промежутка : 504 мс.





реклама партнёра


Вернуться к началу
 Профиль Отправить личное сообщение  
 
   Похожие торренты   Автор   Торрент   Размер 
В этой теме нет новых непрочитанных сообщений. Испанец [Серии 1-4 из 4] (Анатолий Артамонов) [Криминал, остросюжетный, 2015] SATRip

Dracon

62 | 4

2.35 ГБ

В этой теме нет новых непрочитанных сообщений. Рога / Horns (Александр Ажа) [ужасы, фэнтези, триллер, драма, 2013] BDRip-AVC, Mvo+Sub [Лицензия]

Dracon

1801 | 68

2.18 ГБ

В этой теме нет новых непрочитанных сообщений. Рога / Horns (Александр Ажа) [ужасы, фэнтези, триллер, драма, 2013] BDRip 720p, Mvo [Лицензия]

Dracon

157 | 7

6.28 ГБ

В этой теме нет новых непрочитанных сообщений. Чужое гнездо [серия 1-54 из 60] (Елена Цыплакова, Денис Карро, Александр Ламакин, Роман Нестеренко, Александр Строев) [Мелодрама, семейная сага, драма, 2015] HDTVRip

Dracon

6 | 7

28.98 ГБ

В этой теме нет новых непрочитанных сообщений. Чужое гнездо [серия 1-44 из 60] (Елена Цыплакова, Денис Карро, Александр Ламакин, Роман Нестеренко, Александр Строев) [Мелодрама, семейная сага, драма, 2015] HDTVRip

Dracon

6 | 12

23.61 ГБ

В этой теме нет новых непрочитанных сообщений. Чужое гнездо [серия 1-48 из 60] (Елена Цыплакова, Денис Карро, Александр Ламакин, Роман Нестеренко, Александр Строев) [Мелодрама, семейная сага, драма, 2015] HDTVRip

Dracon

0 | 5

25.76 ГБ

В этой теме нет новых непрочитанных сообщений. Чужое гнездо [01-60 из 60] (Елена Цыплакова, Денис Карро, Александр Ламакин, Роман Нестеренко, Александр Строев) [Мелодрама, семейная сага, драма, 2015] HDTV 1080i

Dracon

15 | 55

197.25 ГБ


Начать новую тему Ответить на тему  [ 1 сообщение ] 




Для Мосгорсуда, Роскомнадзора и рекламодателей:: mosgorsud-torrent[собачка]yandex.ru