Торрент файл
скачать торрент магнет ссылка Добавлен: 23 июн 2014, 09:56
Размер: 2.6 ГБ
Сидеров: 5068
Личеров: 189
Статус: (Dracon)
Автор

СообщениеДобавлено: 23 июн 2014, 09:56 

Не в сети
Зам. Админа
Аватара пользователя
Дата регистрации:
02 дек 2010, 12:39
Спасибо: 12623 / 214
Сообщения: 28012
Год выхода: 2014
Жанр: семейный, приключения, комедия
Режиссер: Карен Оганесян
В ролях: Михаил Галустян, Артем Фадеев, Фёдор Бондарчук, Екатерина Климова, Николай Валуев, Ирина Безрукова, Катерина Шпица, Алексей Макаров, Константин Юшкевич, Инга Стрелкова-Оболдина

О фильме:
Быть пандой весело! Но не Мише, который вынужден работать в костюме панды на детских праздниках. Ему тридцать лет, он живет в крохотной однушке на окраине Москвы, и у него нет серьезной работы. Все было так, пока его не позвали на день рождения к сыну олигарха. Артему девять лет, и у него есть тайный план, помочь осуществить который может только Миша. Мальчик и панда отправляются в путешествие через всю страну, то и дело вляпываясь в невероятные ситуации.



Страна: Россия
Студия: Fresh Films
Продолжительность: 01:21:16
Перевод: Оригинал

Кодек: h.264 (MKV)
Качество: WEBRip 720p
Видео: AVC, 1280 x 680, ~4240 kbps
Звук: AC-3, 2 ch, 256 kbps
Субтитры: нет

Семпл

Общее
Уникальный идентификатор : 180043707848772139423360323701995697143 (0x87732825A599B1E294AD53FFB0B773F7)
Полное имя : G: Подарок с характером (2014)Без названияПодарок с характером (2014) WEBRip 720p.mkv
Формат : Matroska
Версия формата : Version 4 / Version 2
Размер файла : 2,60 Гбайт
Продолжительность : 1 ч. 21 м.
Общий поток : 4588 Кбит/сек
Дата кодирования : UTC 2014-06-23 03:18:35
Программа кодирования : mkvmerge v6.9.1 ('Blue Panther') 64bit built on Apr 18 2014 18:23:38
Библиотека кодирования : libebml v1.3.0 + libmatroska v1.4.1

Видео
Идентификатор : 1
Формат : AVC
Формат/Информация : Advanced Video Codec
Профиль формата : Main@L5.1
Параметр CABAC формата : Да
Параметр ReFrames формата : 1 кадр
Идентификатор кодека : V_MPEG4/ISO/AVC
Продолжительность : 1 ч. 21 м.
Битрейт : 4240 Кбит/сек
Ширина : 1280 пикселей
Высота : 680 пикселей
Соотношение сторон : 1,882
Режим частоты кадров : Постоянный
Частота кадров : 25,000 кадров/сек
Цветовое пространство : YUV
Субдискретизация насыщенности : 4:2:0
Битовая глубина : 8 бит
Тип развёртки : Прогрессивная
Бит/(Пиксели*Кадры) : 0.195
Размер потока : 2,41 Гбайт (92%)
Default : Да
Forced : Нет

Аудио
Идентификатор : 2
Формат : AC-3
Формат/Информация : Audio Coding 3
Расширение режима : CM (complete main)
Параметр Endianness формата : Big
Идентификатор кодека : A_AC3
Продолжительность : 1 ч. 21 м.
Вид битрейта : Постоянный
Битрейт : 256 Кбит/сек
Каналы : 2 канала
Расположение каналов : Front: L R
Частота : 48,0 КГц
Битовая глубина : 16 бит
Метод сжатия : С потерями
Размер потока : 149 Мбайт (6%)
Default : Да
Forced : Нет




реклама партнёра


Вернуться к началу
 Профиль  
 
   Похожие торренты   Автор   Торрент   Размер 
В этой теме нет новых непрочитанных сообщений. Подарок на Рождество 2 / Jingle All the Way 2 [семейный, комедия, 2014] WEB-DL 720p, Mvo+Sub

salma3

394 | 17

3.04 ГБ

В этой теме нет новых непрочитанных сообщений. Подарок на Рождество 2 / Jingle All the Way 2 [семейный, комедия, 2014] WEB-DLRip, Mvo

salma3

406 | 11

1.37 ГБ

В этой теме нет новых непрочитанных сообщений. Подарок на Рождество 2 / Jingle All the Way 2 [семейный, комедия, 2014] HDRip-AVC, Mvo+Sub

salma3

398 | 12

2.27 ГБ

В этой теме нет новых непрочитанных сообщений. Приключения маленьких итальянцев [комедия, семейный, 2014] WEBRip

Dracon

151 | 4

1.37 ГБ

В этой теме нет новых непрочитанных сообщений. Приключения кота в сапогах / The Adventures of Puss in Boots [S02] [Мультсериал, комедия, приключения, семейный, 2016] WEBRip 720p, Mvo [NewStudio]

salma3

207 | 32

3.96 ГБ

В этой теме нет новых непрочитанных сообщений. Снежная королева 2: Перезаморозка (Алексей Цицилин) [мультфильм, фэнтези, приключения, семейный, 2014] WEBRip 720p

Dracon

634 | 10

2.25 ГБ

В этой теме нет новых непрочитанных сообщений. Приключения кота в сапогах / The Adventures of Puss in Boots [01x01-15 из 15] (Даг Лэнгдэйл) [Мультсериал, комедия, приключения, семейный, 2015] WEBRip 720p [NewStudio]

Dracon

245 | 149

6.43 ГБ


Начать новую тему Ответить на тему  [ 1 сообщение ] 




Для Мосгорсуда, Роскомнадзора и рекламодателей:: mosgorsud-torrent[собачка]yandex.ru