Торрент файл
скачать торрент магнет ссылка Добавлен: 12 июн 2014, 16:35
Размер: 2.06 ГБ
Сидеров: 97
Личеров: 4
Статус: (Dracon)
Автор

СообщениеДобавлено: 12 июн 2014, 16:35 

Не в сети
Зам. Админа
Аватара пользователя
Дата регистрации:
02 дек 2010, 12:39
Спасибо: 12461 / 214
Сообщения: 27968
Год выпуска: 2014
Жанр: Боевик
Выпущено: Россия, Централ Партнершип
Режиссер: Василий Сериков
В ролях: Макар Запорожский, Денис Никифоров, Виктор Сухоруков, Екатерина Маликова, Гаэль Камилинди, Александр Галибин, Владислав Дёмин, Ибрагим Тооре, Софья Козко, Иван Породнов

О фильме: Морпех — первогодок Саня Ежов оказывается среди пиратов на захваченном танкере. Он знает — товарищи не бросят. Ему нужно выжить и помочь своим, когда начнется штурм. Фильм основан на реальных событиях 5 мая 2010 года, когда морские пехотинцы БПК «Маршал Шапошников» освободили захваченный в водах Аденского залива российский танкер «Московский университет». У них было только 22 минуты без права на ошибку…



Качество: HDRip (AVC)
Видео: MPEG-4 AVC, 3122 Кбит/с, 1024x426
Аудио: AC3, 6 ch, 448 Кбит/с
Продолжительность: 01:22:48
Язык: Русский

General
Unique ID : 249054576214398913132720829282739057667 (0xBB5E2AA712213599BE5FDFD1638C7403)
Complete name : C:22.m1nuty.2014.O.HDRip.AVC.ExKinoRay.mkv
Format : Matroska
Format version : Version 2
File size : 2.06 GiB
Duration : 1h 22mn
Overall bit rate : 3 559 Kbps
Movie name : 22 minuty from ExKinoRay
Encoded date : UTC 2014-06-12 11:16:46
Writing application : mkvmerge v4.9.1 ('Ich will') built on Jul 11 2011 23:53:15
Writing library : libebml v1.2.1 + libmatroska v1.1.1

Video
ID : 1
Format : AVC
Format/Info : Advanced Video Codec
Format profile : High@L4.1
Format settings, CABAC : Yes
Format settings, ReFrames : 9 frames
Codec ID : V_MPEG4/ISO/AVC
Duration : 1h 22mn
Bit rate : 3 122 Kbps
Width : 1 024 pixels
Height : 426 pixels
Display aspect ratio : 2.40:1
Frame rate mode : Constant
Frame rate : 24.000 fps
Color space : YUV
Chroma subsampling : 4:2:0
Bit depth : 8 bits
Scan type : Progressive
Bits/(Pixel*Frame) : 0.298
Stream size : 1.76 GiB (85%)
Title : Enigma-Vladislav71
Writing library : x264 core 116 r2044 392e762
Encoding settings : cabac=1 / ref=9 / deblock=1:-3:-3 / analyse=0x3:0x113 / me=umh / subme=10 / psy=1 / psy_rd=1.00:0.20 / mixed_ref=1 / me_range=32 / chroma_me=1 / trellis=2 / 8x8dct=1 / cqm=0 / deadzone=21,11 / fast_pskip=0 / chroma_qp_offset=-3 / threads=12 / sliced_threads=0 / nr=0 / decimate=0 / interlaced=0 / bluray_compat=0 / constrained_intra=0 / bframes=8 / b_pyramid=2 / b_adapt=2 / b_bias=0 / direct=3 / weightb=1 / open_gop=0 / weightp=2 / keyint=240 / keyint_min=24 / scenecut=40 / intra_refresh=0 / rc=2pass / mbtree=0 / bitrate=3122 / ratetol=1.0 / qcomp=0.60 / qpmin=0 / qpmax=69 / qpstep=4 / cplxblur=20.0 / qblur=0.5 / ip_ratio=1.40 / pb_ratio=1.30 / aq=1:1.00
Default : Yes
Forced : No

Audio
ID : 2
Format : AC-3
Format/Info : Audio Coding 3
Mode extension : CM (complete main)
Format settings, Endianness : Big
Codec ID : A_AC3
Duration : 1h 22mn
Bit rate mode : Constant
Bit rate : 448 Kbps
Channel(s) : 6 channels
Channel positions : Front: L C R, Side: L R, LFE
Sampling rate : 48.0 KHz
Bit depth : 16 bits
Compression mode : Lossy
Stream size : 265 MiB (13%)
Language : Russian
Default : Yes
Forced : No

Menu
00:00:00.000 : ru:
00:00:04.000 : ru:
00:08:16.166 : ru:
00:19:07.791 : ru:
00:30:32.583 : ru:
00:39:31.166 : ru:
00:54:49.500 : ru:
01:01:45.375 : ru:
01:11:12.541 : ru:







реклама партнёра


Вернуться к началу
 Профиль  
 
   Похожие торренты   Автор   Торрент   Размер 
В этой теме нет новых непрочитанных сообщений. 22 минуты [боевик, 2014] BDRip 1080p [Лицензия]

Dracon

2 | 3

7.03 ГБ

В этой теме нет новых непрочитанных сообщений. 22 минуты [боевик, 2014] BDRip 720p [Лицензия]

Dracon

109 | 4

4.69 ГБ

В этой теме нет новых непрочитанных сообщений. 22 минуты (Василий Сериков) [2014, боевик, DVDRip | лицензия]

Nickolas3435

1296 | 32

1.46 ГБ

В этой теме нет новых непрочитанных сообщений. 22 минуты [боевик, 2014] Blu-Ray

Dracon

1 | 2

15.07 ГБ

В этой теме нет новых непрочитанных сообщений. 22 минуты [боевик, 2014] WEBRip

Dracon

5195 | 151

1.37 ГБ

В этой теме нет новых непрочитанных сообщений. 22 минуты [боевик, 2014] DVD5

Dracon

39 | 8

4.37 ГБ

В этой теме нет новых непрочитанных сообщений. Ни минуты покоя / Une heure de tranquillité (Патрис Леконт) [комедия, 2014] HDRip, Dub [iTunes]

Dracon

3173 | 253

1.45 ГБ


Начать новую тему Ответить на тему  [ 1 сообщение ] 




Для Мосгорсуда, Роскомнадзора и рекламодателей:: mosgorsud-torrent[собачка]yandex.ru