Торрент файл
скачать торрент магнет ссылка Добавлен: 10 июн 2014, 23:00
Размер: 1.46 ГБ
Сидеров: 1296
Личеров: 32
Автор

СообщениеДобавлено: 10 июн 2014, 23:00 

Не в сети
Супермодератор
Аватара пользователя
Дата регистрации:
06 июн 2014, 07:51
Спасибо: 576 / 0
Сообщения: 2002
«Своих не бросаем»


Год выпуска: 2014
Страна: Россия / Централ Партнершип
Жанр: боевик
Продолжительность: 01:19:29
Режиссер: Василий Сериков

В ролях: Макар Запорожский, Денис Никифоров, Виктор Сухоруков, Екатерина Маликова, Гаэль Камилинди, Александр Галибин, Владислав Демин, Ибрагим Тооре, Софья Козко, Иван Породнов...

Описание: Морпех — первогодок Саня Ежов оказывается среди пиратов на захваченном танкере. Он знает — товарищи не бросят. Ему нужно выжить и помочь своим, когда начнется штурм. Фильм основан на реальных событиях 5 мая 2010 года, когда морские пехотинцы БПК «Маршал Шапошников» освободили захваченный в водах Аденского залива российский танкер «Московский университет». У них было только 22 минуты без права на ошибку…



Перевод: Не требуется
Cубтитры: нет
Оригинальная аудиодорожка: русский
Качество: DVDRip / DVD9 R5 от Lizard Cinema Trade
Формат: AVI
Видео: 720x304 (2.35:1), 25.000 fps, XviD, ~2167 kbps avg, 0.396 bit/pix
Аудио: 48 kHz, Dolby AC3, 6 ch, 448 kbps, русский

Общее
Полное имя : 22.minuty.2014.O.DVDrip_[New-Team]_by_avproh.avi
Формат : AVI
Формат/Информация : Audio Video Interleave
Размер файла : 1,46 Гбайт
Продолжительность : 1 ч. 19 м.
Общий поток : 2624 Кбит/сек
Программа кодирования : VirtualDubMod 1.5.10.3 | http://www.virtualdub-fr.org || (build 2550/release)
Библиотека кодирования : VirtualDubMod build 2550/release

Видео
Идентификатор : 0
Формат : MPEG-4 Visual
Профиль формата : Advanced Simple@L5
Параметр BVOP формата : 1
Параметр QPel формата : Нет
Параметр GMC формата : Без точки перехода
Параметр матрицы формата : Выборочная
Идентификатор кодека : XVID
Идентификатор кодека/Подсказка : XviD
Продолжительность : 1 ч. 19 м.
Битрейт : 2167 Кбит/сек
Ширина : 720 пикселей
Высота : 304 пикселя
Соотношение сторон : 2,35:1
Частота кадров : 25,000 кадров/сек
Цветовое пространство : YUV
Субдискретизация насыщенности : 4:2:0
Битовая глубина : 8 бит
Тип развёртки : Прогрессивная
Метод сжатия : С потерями
Бит/(Пиксели*Кадры) : 0.396
Размер потока : 1,20 Гбайт (83%)
Библиотека кодирования : XviD 73

Аудио
Идентификатор : 1
Формат : AC-3
Формат/Информация : Audio Coding 3
Расширение режима : CM (complete main)
Параметр Endianness формата : Big
Идентификатор кодека : 2000
Продолжительность : 1 ч. 19 м.
Вид битрейта : Постоянный
Битрейт : 448 Кбит/сек
Каналы : 6 каналов
Расположение каналов : Front: L C R, Side: L R, LFE
Частота : 48,0 КГц
Битовая глубина : 16 бит
Метод сжатия : С потерями
Размер потока : 255 Мбайт (17%)
Выравнивание : Разделение по промежуткам
Продолжительность промежутка : 40 мс. (1,00 видеокадр)
Время предзагрузки промежутка : 500 мс.





реклама партнёра


Вернуться к началу
 Профиль Отправить личное сообщение  
 
   Похожие торренты   Автор   Торрент   Размер 
В этой теме нет новых непрочитанных сообщений. Господа-товарищи [01-16 из 16] (Василий Сериков, Всеволод Аравин, Алексей Рудаков) [Криминал, 2014-2015] HDTVRip

Dracon

199 | 59

10.93 ГБ

В этой теме нет новых непрочитанных сообщений. Господа-товарищи [01-16 из 16] (Василий Сериков, Всеволод Аравин, Алексей Рудаков) [Криминал, 2014-2015] HDTV 1080i

Dracon

46 | 14

51.63 ГБ

В этой теме нет новых непрочитанных сообщений. 22 минуты [боевик, 2014] HDRip-AVC [Лицензия]

Dracon

102 | 4

2.06 ГБ

В этой теме нет новых непрочитанных сообщений. 22 минуты [боевик, 2014] BDRip 720p [Лицензия]

Dracon

109 | 4

4.69 ГБ

В этой теме нет новых непрочитанных сообщений. 22 минуты [боевик, 2014] BDRip 1080p [Лицензия]

Dracon

2 | 3

7.03 ГБ

В этой теме нет новых непрочитанных сообщений. 22 минуты [боевик, 2014] Blu-Ray

Dracon

1 | 2

15.07 ГБ

В этой теме нет новых непрочитанных сообщений. 22 минуты [боевик, 2014] WEBRip

Dracon

5195 | 151

1.37 ГБ


Начать новую тему Ответить на тему  [ 1 сообщение ] 




Для Мосгорсуда, Роскомнадзора и рекламодателей:: mosgorsud-torrent[собачка]yandex.ru