Торрент файл
скачать торрент магнет ссылка Добавлен: 01 июн 2014, 19:25
Размер: 2.19 ГБ
Сидеров: 207
Личеров: 7
Автор

СообщениеДобавлено: 01 июн 2014, 19:25 

Не в сети
Администратор
Дата регистрации:
08 апр 2010, 18:00
Спасибо: 1110 / 220
Сообщения: 17090
Информация о фильме

Оригинальное название: Кухня в Парижe
Год выпуска: 2014
Жанр: Комедия
Выпущено: Россия, YBW Group, Yellow, Black & White, СТС
Режиссер: Дмитрий Дьяченко (II)
В ролях: Дмитрий Назаров, Дмитрий Нагиев, Елена Подкаминская, Марина Могилевская, Марк Богатырёв, Виктор Хориняк, Ольга Кузьмина, Екатерина Кузнецова, Валерия Федорович, Жанныл Асанбекова, Елена Чернявская, Алексей Колган, Сергей Лавыгин, Сергей Епишев, Михаил Тарабукин, Никита Тарасов, Юлия Такшина, Виктория Лукина, Виталий Щанников, Сергей Беляев, Роман Индык, Евгения Храповицкая, Ольга Новосад, Серафима Низовская, Александр Карпиловский, Мария Горбань, Ирина Бразговка
О фильме: Модный столичный ресторан «Клод Моне» процветает. Именно здесь, в родном заведении Вика и Максим хотят отпраздновать долгожданную свадьбу. Но планы меняются, когда в ресторане назначают переговоры Президентов России и Франции! Команда ресторана терпит фиаско и вынуждена отправиться в «изгнание» — в Париж. Там Шеф с Максом сталкиваются с опасными конкурентами: Шеф — с ближайшим родственником, а Максим — с красавцем Николя, который кружит Вике голову не хуже искристого шампанского! И это еще не все вызовы, которые бросает им «Город любви», ведь надо постараться спасти репутацию, накормить Президентов и преодолеть миллион препятствий à la française…

Файл

Качество: WEB-DLRip (AVC)
Видео: MPEG-4 AVC, 2550 Кбит/с, 1024x426, 24 кадр/с
Аудио: AC3, 6 ch, 384 Кбит/с
Размер: 2.19 ГБ
Продолжительность: 01:46:42
Язык: Русский

x264 [info]: frame I:2044 Avg QP:13.52 size: 92267
x264 [info]: frame P:43563 Avg QP:17.03 size: 26631
x264 [info]: frame B:108050 Avg QP:20.03 size: 6397
---------------------------------------------------------
Общее
Уникальный идентификатор : 242783204315283259508452625864692253252 (0xB6A6582541FEE0E7987725874272C244)
Полное имя : D:ЗагрузкиKuhnia.V.Parize.2014.WEB-DLRip(AVC).ExKinoRay.mkv
Формат : Matroska
Версия формата : Version 2
Размер файла : 2,19 Гбайт
Продолжительность : 1 ч. 46 м.
Общий поток : 2934 Кбит/сек
Название фильма : Кухня в Парижe.2014.Rip by: ollan
Дата кодирования : UTC 2014-05-31 23:37:24
Программа кодирования : mkvmerge v5.6.0 ('Kenya Kane') built on May 27 2012 16:44:04
Библиотека кодирования : libebml v1.2.3 + libmatroska v1.3.0

Видео
Идентификатор : 1
Формат : AVC
Формат/Информация : Advanced Video Codec
Профиль формата : High@L4.1
Параметр CABAC формата : Да
Параметр ReFrames формата : 9 кадров
Режим смешивания : Header stripping
Идентификатор кодека : V_MPEG4/ISO/AVC
Продолжительность : 1 ч. 46 м.
Битрейт : 2550 Кбит/сек
Ширина : 1024 пикселя
Высота : 426 пикселей
Соотношение сторон : 2,40:1
Режим частоты кадров : Постоянный
Частота кадров : 24,000 кадра/сек
Цветовое пространство : YUV
Субдискретизация насыщенности : 4:2:0
Битовая глубина : 8 бит
Тип развёртки : Прогрессивная
Бит/(Пиксели*Кадры) : 0.244
Размер потока : 1,86 Гбайт (85%)
Библиотека кодирования : x264 core 125 r2200 999b753
Настройки программы : cabac=1 / ref=9 / deblock=1:-3:-3 / analyse=0x3:0x133 / me=umh / subme=11 / psy=1 / psy_rd=1.00:0.10 / mixed_ref=1 / me_range=32 / chroma_me=1 / trellis=2 / 8x8dct=1 / cqm=0 / deadzone=21,11 / fast_pskip=0 / chroma_qp_offset=-3 / threads=12 / lookahead_threads=2 / sliced_threads=0 / nr=0 / decimate=0 / interlaced=0 / bluray_compat=0 / constrained_intra=0 / bframes=9 / b_pyramid=2 / b_adapt=2 / b_bias=0 / direct=3 / weightb=1 / open_gop=0 / weightp=2 / keyint=240 / keyint_min=23 / scenecut=40 / intra_refresh=0 / rc_lookahead=40 / rc=2pass / mbtree=1 / bitrate=2550 / ratetol=1.0 / qcomp=0.60 / qpmin=0 / qpmax=69 / qpstep=4 / cplxblur=20.0 / qblur=0.5 / ip_ratio=1.40 / aq=1:1.00
Язык : Russian
Default : Да
Forced : Нет

Аудио
Идентификатор : 2
Формат : AC-3
Формат/Информация : Audio Coding 3
Расширение режима : CM (complete main)
Параметр Endianness формата : Big
Режим смешивания : Header stripping
Идентификатор кодека : A_AC3
Продолжительность : 1 ч. 46 м.
Вид битрейта : Постоянный
Битрейт : 384 Кбит/сек
Каналы : 6 каналов
Расположение каналов : Front: L C R, Side: L R, LFE
Частота : 48,0 КГц
Битовая глубина : 16 бит
Метод сжатия : С потерями
Размер потока : 293 Мбайт (13%)
Язык : Russian
Default : Да
Forced : Нет

Меню
00:00:00.000 : en:00:00:00.000
00:06:06.000 : en:00:06:06.000
00:11:09.000 : en:00:11:09.000
00:16:11.000 : en:00:16:11.000
00:21:12.000 : en:00:21:12.000
00:26:14.000 : en:00:26:14.000
00:31:15.000 : en:00:31:15.000
00:36:15.000 : en:00:36:15.000
00:46:30.000 : en:00:46:30.000
00:51:31.000 : en:00:51:31.000
00:56:43.000 : en:00:56:43.000
01:01:45.000 : en:01:01:45.000
01:06:48.000 : en:01:06:48.000
01:17:02.000 : en:01:17:02.000
01:22:05.000 : en:01:22:05.000
01:27:05.000 : en:01:27:05.000
01:32:06.000 : en:01:32:06.000






реклама партнёра


Вернуться к началу
 Профиль Отправить личное сообщение  
 
   Похожие торренты   Автор   Торрент   Размер 
В этой теме нет новых непрочитанных сообщений. Ночь в Париже / Ouvert la nuit [Драма, комедия, 2016] WEB-DLRip-AVC, Mvo [iTunes]

salma3

145 | 27

1.55 ГБ

В этой теме нет новых непрочитанных сообщений. Страна чудес (Дмитрий Дьяченко, Максим Свешников) [2015 г., Комедия, HQRip] Лицензия

marya111

1 | 12

1.37 ГБ

В этой теме нет новых непрочитанных сообщений. Пуэрториканцы в Париже / Puerto Ricans in Paris [комедия, 2015] BDRip, Mvo [iTunes]

salma3

747 | 70

1.42 ГБ

В этой теме нет новых непрочитанных сообщений. Ночь в Париже / Ouvert la nuit [драма, комедия, 2016] WEBDLRip, Mvo [iTunes]

salma3

502 | 84

1.37 ГБ

В этой теме нет новых непрочитанных сообщений. Ночь в Париже / Open at Night [Драма, комедия, 2016] WEB-DL 1080p, Mvo [iTunes]

salma3

497 | 162

3.62 ГБ

В этой теме нет новых непрочитанных сообщений. Ночь в Париже / Open at Night [Драма, комедия, 2016] BDRip, Dub [iTunes]

salma3

58 | 5

745.52 МБ

В этой теме нет новых непрочитанных сообщений. Русские анальные возлюбленные / Russian Anal Sweethearts (Студия: Evil Playgrounds) [2014 г., Anal, Legal Teen, BJ, Russian Girls, Compilation, Gonzo, Hardcore, All Sex, WEB-DLRip]

max77777

27 | 9

1.13 ГБ


Начать новую тему Ответить на тему  [ 1 сообщение ] 




Для Мосгорсуда, Роскомнадзора и рекламодателей:: mosgorsud-torrent[собачка]yandex.ru