Торрент файл
скачать торрент магнет ссылка Добавлен: 21 май 2014, 09:55
Размер: 1.46 ГБ
Сидеров: 308
Личеров: 4
Статус: (salma3)
Автор

СообщениеДобавлено: 21 май 2014, 09:55 

Не в сети
Зам. Админа
Аватара пользователя
Дата регистрации:
02 дек 2010, 12:39
Спасибо: 12623 / 214
Сообщения: 28012
Год выпуска: 2014
Страна: Россия / Данаис Фильм
Жанр: биография, драма
Продолжительность: 01:26:04
Перевод: Не требуется
Cубтитры: нет
Оригинальная аудиодорожка: русский
Режиссер: Евгений Ткачук
В ролях: Евгений Ткачук, Шамиль Хаматов, Иева Андреевайте, Семен Морозов, Эммануил Виторган, Андрей Соколов, Дмитрий Богдан, Вера Панфилова, Антон Шурцов, Андрей Назимов...
Описание: Как в России честно заработать своим умом? Как добиться успеха и утвердить свое имя в мире бизнеса? Чем жертвует и что приобретает человек, который много лет стремится к своей цели? История создания с нуля крупного российского поискового портала. 20 лет риска, трудов, надежды, 20 лет дружбы…


Качество: DVDRip / DVD5 R5 от Paradise
Формат: AVI
Видео: 720x428@1024x428 (2.40:1), 25.000 fps, MPEG-4 AVC, ~2036 kbps avg, 0.264 bit/pix
Аудио: 48 kHz, Dolby AC3, 6 ch, 384 kbps, русский

Общее
Полное имя : Startap.2014.O.DVDRip-AVC_[New-Team]_by_avproh.mkv
Формат : Matroska
Версия формата : Version 2
Размер файла : 1,46 Гбайт
Продолжительность : 1 ч. 26 м.
Общий поток : 2421 Кбит/сек
Дата кодирования : UTC 2014-05-20 18:44:17
Программа кодирования : mkvmerge v6.1.0 ('Old Devil') built on Mar 4 2013 09:10:42
Библиотека кодирования : libebml v1.3.0 + libmatroska v1.4.0
Видео
Идентификатор : 1
Формат : AVC
Формат/Информация : Advanced Video Codec
Профиль формата : High@L4.1
Параметр CABAC формата : Да
Параметр ReFrames формата : 8 кадров
Идентификатор кодека : V_MPEG4/ISO/AVC
Продолжительность : 1 ч. 26 м.
Битрейт : 2036 Кбит/сек
Ширина : 720 пикселей
Высота : 428 пикселей
Соотношение сторон : 2,40:1
Режим частоты кадров : Постоянный
Частота кадров : 25,000 кадров/сек
Цветовое пространство : YUV
Субдискретизация насыщенности : 4:2:0
Битовая глубина : 8 бит
Тип развёртки : Прогрессивная
Бит/(Пиксели*Кадры) : 0.264
Размер потока : 1,20 Гбайт (82%)
Библиотека кодирования : x264 core 138 r2356 a1d3d17
Настройки программы : cabac=1 / ref=8 / deblock=1:-2:-1 / analyse=0x3:0x113 / me=umh / subme=10 / psy=1 / psy_rd=1.00:0.05 / mixed_ref=1 / me_range=32 / chroma_me=1 / trellis=2 / 8x8dct=1 / cqm=0 / deadzone=21,11 / fast_pskip=0 / chroma_qp_offset=-3 / threads=9 / lookahead_threads=1 / sliced_threads=0 / nr=0 / decimate=0 / interlaced=0 / bluray_compat=0 / constrained_intra=0 / bframes=8 / b_pyramid=2 / b_adapt=2 / b_bias=0 / direct=3 / weightb=1 / open_gop=0 / weightp=2 / keyint=250 / keyint_min=25 / scenecut=40 / intra_refresh=0 / rc=2pass / mbtree=0 / bitrate=2036 / ratetol=1.0 / qcomp=0.60 / qpmin=0 / qpmax=69 / qpstep=4 / cplxblur=20.0 / qblur=0.5 / ip_ratio=1.40 / pb_ratio=1.30 / aq=1:1.00
Default : Да
Forced : Нет
Аудио
Идентификатор : 2
Формат : AC-3
Формат/Информация : Audio Coding 3
Расширение режима : CM (complete main)
Параметр Endianness формата : Big
Идентификатор кодека : A_AC3
Продолжительность : 1 ч. 26 м.
Вид битрейта : Постоянный
Битрейт : 384 Кбит/сек
Каналы : 6 каналов
Расположение каналов : Front: L C R, Side: L R, LFE
Частота : 48,0 КГц
Битовая глубина : 16 бит
Метод сжатия : С потерями
Размер потока : 236 Мбайт (16%)
Default : Да
Forced : Нет






реклама партнёра


Вернуться к началу
 Профиль  
 
   Похожие торренты   Автор   Торрент   Размер 
В этой теме нет новых непрочитанных сообщений. Дикая / Wild (Жан-Марк Валле) [Драма, биография, 2014] HDRip, Dub [лицензия]

Dracon

7720 | 459

1.37 ГБ

В этой теме нет новых непрочитанных сообщений. Дикая / Wild (Жан-Марк Валле) [Драма, биография, 2014] BDRip 720p, Dub+Sub [Лицензия]

Dracon

1012 | 35

5.72 ГБ

В этой теме нет новых непрочитанных сообщений. Дикая / Wild (Жан-Марк Валле) [Драма, биография, 2014] BDRip 1080p, Dub+Sub [Лицензия]

Dracon

552 | 41

13.43 ГБ

В этой теме нет новых непрочитанных сообщений. Ив Сен-Лоран / Yves Saint Laurent (Джалиль Леспер) [драма, биография, 2014] DVD5, Mvo [Лицензия]

Dracon

47 | 15

3.94 ГБ

В этой теме нет новых непрочитанных сообщений. Несломленный / Unbroken (Анджелина Джоли) [драма, военный, биография, спорт, 2014] BDRip, Dub [лицензия]

Dracon

9 | 4

2.19 ГБ

В этой теме нет новых непрочитанных сообщений. Вселенная Стивена Хокинга / The Theory of Everything (Джеймс Марш) [Драма, мелодрама, биография, 2014] HDRip, Dub [Лицензия]

Dracon

110 | 4

1.37 ГБ

В этой теме нет новых непрочитанных сообщений. Джеймс Браун: Путь наверх / Get on Up (Тейт Тейлор) [2014, Драма, биография, музыка, BDRip | Лицензия] Dub

Nickolas3435

130 | 5

2.56 ГБ


Начать новую тему Ответить на тему  [ 1 сообщение ] 




Для Мосгорсуда, Роскомнадзора и рекламодателей:: mosgorsud-torrent[собачка]yandex.ru