Торрент файл
скачать торрент магнет ссылка Добавлен: 05 май 2014, 18:25
Размер: 1.37 ГБ
Сидеров: 0
Личеров: 2
Статус: (salma3)
Автор

СообщениеДобавлено: 05 май 2014, 18:25 

Не в сети
Аватара пользователя
Дата регистрации:
03 май 2014, 21:38
Спасибо: 17 / 0
Сообщения: 50
Трудно быть Богом (2013) WEB-DLRip

Год выпуска: 2013
Производство: Россия, Среда Фетисов Филмс
Жанр: Фантастика, Драма
Перевод: Не требуется (русский) | iTunes |
Субтитры: Отсутствуют

Дата мировой премьеры: 13 ноября 2013
Дата российской премьеры: 27 февраля 2014, «Люксор»
Дата выхода DVD релиза: 20 мая 2014, «Lizard Cinema Trade»

Режиссер: Алексей Герман
Продюсер: Алексей Герман, Светлана Кармалита, Аркадий Стругацкий
Актеры: Леонид Ярмольник, Юрий Цурило, Наталья Мотева, Александр Чутко, Евгений Герчаков, Александр Ильин, Пётр Меркурьев, Олег Ботин, Константин Быков, Юрий Думчев

Описание фильма:
На планете, погружённой в глухое Средневековье, работают наблюдатели-земляне, которые пытаются бережно подправлять ход событий, не нарушая логическое развитие истории. Главный герой, дон Румата Эсторский, осознавая свою задачу сохранения нейтралитета, тем не менее, не выдерживает, когда в Арканаре (одном из городов планеты) захватывает власть «чёрное братство», свергнувшее господство «серых», столь же отвратительных, но не столь кровавых. Румата берётся за меч, чтобы покарать злодеев, и тем самым нарушает все правила и закономерности, вмешиваясь в чужой исторический процесс.



Возраст: 18+

Продолжительность: 02:57:09
Качество видео: WEB-DLRip

Видеокодек: XviD
Битрейт видео: 963 kb/s
Размер кадра: 720x400
Аудиокодек: MP3, 2 ch
Битрейт аудио: 128 kb/s
Код:
Код:
Общее
Полное имя                               : D:\Trudno.Byti.Bogom.2013.WEB-DLRip.NNM-CLUB.avi
Формат                                   : AVI
Формат/Информация                        : Audio Video Interleave
Размер файла                             : 1,37 Гбайт
Продолжительность                        : 2 ч. 57 м.
Общий поток                              : 1104 Кбит/сек
Программа кодирования                    : VirtualDubMod 1.5.10.2 (build 2540/release)
Библиотека кодирования                   : VirtualDubMod build 2540/release

Видео
Идентификатор                            : 0
Формат                                   : MPEG-4 Visual
Профиль формата                          : Advanced Simple@L5
Параметр BVOP формата                    : 2
Параметр QPel формата                    : Нет
Параметр GMC формата                     : Без точки перехода
Параметр матрицы формата                 : Выборочная
Идентификатор кодека                     : XVID
Идентификатор кодека/Подсказка           : XviD
Продолжительность                        : 2 ч. 57 м.
Битрейт                                  : 967 Кбит/сек
Ширина                                   : 720 пикселей
Высота                                   : 400 пикселей
Соотношение сторон                       : 16:9
Частота кадров                           : 24,000 кадра/сек
Цветовое пространство                    : YUV
Субдискретизация насыщенности            : 4:2:0
Битовая глубина                          : 8 бит
Тип развёртки                            : Прогрессивная
Метод сжатия                             : С потерями
Бит/(Пиксели*Кадры)                      : 0.140
Размер потока                            : 1,20 Гбайт (88%)
Библиотека кодирования                   : XviD 1.2.1 (UTC 2008-12-04)

Аудио
Идентификатор                            : 1
Формат                                   : MPEG Audio
Версия формата                           : Version 1
Профиль формата                          : Layer 3
Идентификатор кодека                     : 55
Идентификатор кодека/Подсказка           : MP3
Продолжительность                        : 2 ч. 57 м.
Вид битрейта                             : Постоянный
Битрейт                                  : 128 Кбит/сек
Каналы                                   : 2 канала
Частота                                  : 48,0 КГц
Метод сжатия                             : С потерями
Размер потока                            : 162 Мбайт (12%)
Выравнивание                             : Соединение по промежуткам
Продолжительность промежутка             : 42  мс. (1,00 видеокадр)
Время предзагрузки промежутка            : 504  мс.
Библиотека кодирования                   : LAME3.99r
Настройки программы                      : -m s -V 4 -q 2 -lowpass 17 -b 128


Время раздачи: 24/7,
до 5 скачавших.




реклама партнёра


Вернуться к началу
 Профиль Отправить личное сообщение  
 
   Похожие торренты   Автор   Торрент   Размер 
В этой теме нет новых непрочитанных сообщений. Трудно быть Богом [фантастика, драма, 2013] WEB-DLRip [iTunes]

Dracon

608 | 10

2.05 ГБ

В этой теме нет новых непрочитанных сообщений. Трудно быть Богом [фантастика, драма, 2013] HDRip [лицензия]

Dracon

0 | 2

2.18 ГБ

В этой теме нет новых непрочитанных сообщений. Трудно быть Богом [фантастика, драма, 2013] DVD9 [лицензия]

Dracon

107 | 6

6.84 ГБ

В этой теме нет новых непрочитанных сообщений. Реактивный поток / Jet Stream [фантастика, боевик, драма, приключения, 2013] WEB-DLRip, Mvo

salma3

57 | 10

1.37 ГБ

В этой теме нет новых непрочитанных сообщений. Я выслежу тебя / Я иду за тобой / I'll Follow You Down [Фантастика, драма, детектив, 2013] WEB-DLRip, Avo

salma3

259 | 9

1.36 ГБ

В этой теме нет новых непрочитанных сообщений. Побудь в моей шкуре / Under the Skin [фантастика, триллер, драма, 2013] WEB-DLRip, Avo

Dracon

662 | 10

1.37 ГБ

В этой теме нет новых непрочитанных сообщений. Забытый богом / Van God Los / Godforsaken (Питер Койперс / Pieter Kuijpers) [2003г., драма, криминал, HDRip] MVO

Alfredovich

2 | 2

1.46 ГБ


СообщениеДобавлено: 15 май 2014, 08:28 

Не в сети
Дата регистрации:
15 май 2014, 08:26
Спасибо: 0 / 0
Сообщения: 1
все окай


Вернуться к началу
 Профиль Отправить личное сообщение  
 
Начать новую тему Ответить на тему  [ Сообщений: 2 ] 




Для Мосгорсуда, Роскомнадзора и рекламодателей:: mosgorsud-torrent[собачка]yandex.ru