Торрент файл
скачать торрент магнет ссылка Добавлен: 05 май 2014, 15:50
Размер: 1.46 ГБ
Сидеров: 128
Личеров: 6
Автор

СообщениеДобавлено: 05 май 2014, 15:50 

Не в сети
Аватара пользователя
Дата регистрации:
03 май 2014, 21:38
Спасибо: 17 / 0
Сообщения: 50
Географ глобус пропил

Год выпуска: 2013
Страна: Россия
Жанр: драма
Продолжительность: 02:04:51
Перевод: не требуется
Cубтитры: нет

Режиссер: Александр Велединский

В ролях: Константин Хабенский, Елена Лядова, Александр Робак, Евгения Брик, Анна Уколова, Евгения Крегжде, Агриппина Стеклова, Максим Лагашкин, Анфиса Черных, Андрей Прытков

Описание: Молодой биолог Виктор Служкин от безденежья идет работать учителем географии в обычную пермскую школу. Он борется, а потом и дружит с учениками, конфликтует с завучем, ведет десятиклассников в поход — сплавляться по реке. Еще он пьет с друзьями вино, пытается ужиться с женой и водит в детский сад маленькую дочку. Он просто живет…



Качество: BDRip - Исходник BDRemux 1080p
Формат: AVI
Видео кодек: XviD
Аудио кодек: AC3
Видео: 720x304 (2.37:1), 24.000 fps, XviD build 73 ~1473 kbps avg, 0.28 bit/pixel
Аудио: 48 kHz, AC3 Dolby Digital, 2/0 (L,R) ch, ~192 kbps




D:Мои рипыGeograf.2013.BDRip.dexter_lex.avi
General
Complete name : D:Мои рипыGeograf.2013.BDRip.dexter_lex.avi
Format : AVI
Format/Info : Audio Video Interleave
File size : 1.46 GiB
Duration : 2h 4mn
Overall bit rate : 1 675 Kbps
Writing application : VirtualDubMod 1.5.10.3 | http://www.virtualdub-fr.org || (build 2550/release)
Writing library : VirtualDubMod build 2550/release
Video #0
ID : 0
Format : MPEG-4 Visual
Format profile : Advanced Simple@L5
Format settings, BVOP : 1
Format settings, QPel : No
Format settings, GMC : No warppoints
Format settings, Matrix : Custom
Codec ID : XVID
Codec ID/Hint : XviD
Duration : 2h 4mn
Bit rate : 1 473 Kbps
Width : 720 pixels
Height : 304 pixels
Display aspect ratio : 2.35:1
Frame rate : 24.000 fps
Color space : YUV
Chroma subsampling : 4:2:0
Bit depth : 8 bits
Scan type : Progressive
Compression mode : Lossy
Bits/(Pixel*Frame) : 0.280
Stream size : 1.29 GiB (88%)
Writing library : XviD 73
Audio #1
ID : 1
Format : AC-3
Format/Info : Audio Coding 3
Mode extension : CM (complete main)
Codec ID : 2000
Duration : 2h 4mn
Bit rate mode : Constant
Bit rate : 192 Kbps
Channel(s) : 2 channels
Channel positions : Front: L R
Sampling rate : 48.0 KHz
Bit depth : 16 bits
Compression mode : Lossy
Stream size : 171 MiB (11%)
Alignment : Split accross interleaves
Interleave, duration : 42 ms (1.00 video frame)
Interleave, preload duration : 500 ms



Последний раз редактировалось Kochesov 05 май 2014, 16:53, всего редактировалось 2 раз(а).


реклама партнёра


Вернуться к началу
 Профиль Отправить личное сообщение  
 
   Похожие торренты   Автор   Торрент   Размер 
В этой теме нет новых непрочитанных сообщений. Географ глобус пропил [Драма, 2013] BDRip

Ανδρέας

771 | 46

1.46 ГБ

В этой теме нет новых непрочитанных сообщений. Географ глобус пропил [Драма, 2013] BDRip 720p

Ανδρέας

1242 | 116

5.76 ГБ

В этой теме нет новых непрочитанных сообщений. Географ глобус пропил [Драма, 2013] BDRip 1080p

Ανδρέας

1107 | 135

11.03 ГБ

В этой теме нет новых непрочитанных сообщений. Географ глобус пропил [Драма, 2013] Blu-Ray

Ανδρέας

2 | 2

18.59 ГБ

В этой теме нет новых непрочитанных сообщений. Дворецкий / The Butler [драма, биография, 2013] BDRip, Mvo+Sub [лицензия]

Dracon

510 | 82

2.6 ГБ

В этой теме нет новых непрочитанных сообщений. День труда / Labor Day [драма, 2013] BDRip-AVC, Dub+Sub [лицензия]

salma3

13 | 3

2.19 ГБ

В этой теме нет новых непрочитанных сообщений. День труда / Labor Day [драма, 2013] BDRip, Dub [лицензия]

salma3

42 | 2

1.46 ГБ


СообщениеДобавлено: 05 май 2014, 16:01 

Не в сети
Зам. Админа
Аватара пользователя
Дата регистрации:
02 дек 2010, 12:39
Спасибо: 12461 / 214
Сообщения: 27968
Географ глобус пропил [(пробел убирай) Драма, 2013] BDRip (релиз группу убирай от New-Team | )[Лицензия]- лицензия в скобках


Вернуться к началу
 Профиль  
 

СообщениеДобавлено: 29 май 2014, 20:12 

Не в сети
Дата регистрации:
07 фев 2014, 09:31
Спасибо: 0 / 3
Сообщения: 2
Kochesov писал(а):
Re: Географ глобус пропил [Драма, 2013] BDRip [Лицензия]

Хороший фильм , Рекомендую


Вернуться к началу
 Профиль Отправить личное сообщение  
 
Начать новую тему Ответить на тему  [ Сообщений: 3 ] 




Для Мосгорсуда, Роскомнадзора и рекламодателей:: mosgorsud-torrent[собачка]yandex.ru