Торрент файл
скачать торрент магнет ссылка Добавлен: 05 апр 2014, 10:07
Размер: 1.46 ГБ
Сидеров: 49
Личеров: 2
Автор

СообщениеДобавлено: 05 апр 2014, 10:07 

Не в сети
Зам. Админа
Аватара пользователя
Дата регистрации:
02 дек 2010, 12:39
Спасибо: 12461 / 214
Сообщения: 27968
Год выпуска: 2014
Страна: Россия / Каропрокат Россия, TFD Film Ukraine Украина
Жанр: комедия, фантастика
Продолжительность: 01:22:16

Перевод: Не требуется
Cубтитры: нет
Оригинальная аудиодорожка: русский

Режиссер: Евгений Абызов

В ролях: Гарик Харламов, Кристина Асмус, Екатерина Васильева, Александр Ревва, Татьяна Космачева, Владимир Яглыч, Сергей Сафронов, Юрий Кузнецов, Анна Антонова, Александр Самойленко...

Описание: Молодому и успешному риелтору Павлу, провернувшему немало полулегальных сделок, необходимо получить доверенность на куплю-продажу старинного поместья. А для этого втереться в доверие к владелице недвижимости, одинокой старушке, доживающей свои дни в родовом гнезде. Разработав хитрый план, риелтор-аферист получает заветную бумагу и начинает готовить поместье к продаже, празднуя очередную победу. Но не тут-то было! В отлаженный ход событий вмешиваются высшие силы. С наступлением темноты с Павлом происходят необъяснимые события — он внезапно начинает перемещаться в пространстве…




Качество: BDRip
Формат: AVI
Видео: 720x304 (2.35:1), 24.000 fps, XViD ~ 2077 kbps avg, 0.395 bit/pixel
Аудио: 48 kHz, Dolby AC3, 6 ch, 448 kbps, русский

Общее
Полное имя : Legok.na.pomine.2014.O.BDRip_[New-Team]_by_avproh.avi
Формат : AVI
Формат/Информация : Audio Video Interleave
Размер файла : 1,46 Гбайт
Продолжительность : 1 ч. 22 м.
Общий поток : 2535 Кбит/сек
Программа кодирования : VirtualDubModRus 1.5.10.2 (build 2542/release)
Библиотека кодирования : VirtualDubMod build 2542/release

Видео
Идентификатор : 0
Формат : MPEG-4 Visual
Профиль формата : Advanced Simple@L5
Параметр BVOP формата : 1
Параметр QPel формата : Нет
Параметр GMC формата : Без точки перехода
Параметр матрицы формата : Выборочная
Идентификатор кодека : XVID
Идентификатор кодека/Подсказка : XviD
Продолжительность : 1 ч. 22 м.
Битрейт : 2077 Кбит/сек
Ширина : 720 пикселей
Высота : 304 пикселя
Соотношение сторон : 2,35:1
Частота кадров : 24,000 кадра/сек
Цветовое пространство : YUV
Субдискретизация насыщенности : 4:2:0
Битовая глубина : 8 бит
Тип развёртки : Прогрессивная
Метод сжатия : С потерями
Бит/(Пиксели*Кадры) : 0.395
Размер потока : 1,19 Гбайт (82%)
Библиотека кодирования : XviD 73

Аудио
Идентификатор : 1
Формат : AC-3
Формат/Информация : Audio Coding 3
Расширение режима : CM (complete main)
Параметр Endianness формата : Big
Идентификатор кодека : 2000
Продолжительность : 1 ч. 22 м.
Вид битрейта : Постоянный
Битрейт : 448 Кбит/сек
Каналы : 6 каналов
Расположение каналов : Front: L C R, Side: L R, LFE
Частота : 48,0 КГц
Битовая глубина : 16 бит
Метод сжатия : С потерями
Размер потока : 264 Мбайт (18%)
Выравнивание : Разделение по промежуткам
Продолжительность промежутка : 42 мс. (1,00 видеокадр)
Время предзагрузки промежутка : 500 мс.







реклама партнёра


Вернуться к началу
 Профиль  
 
   Похожие торренты   Автор   Торрент   Размер 
В этой теме нет новых непрочитанных сообщений. Легок на помине [Комедия, Фантастика, 2014] BDRip 720p [лицензия]

Dracon

317 | 19

3.28 ГБ

В этой теме нет новых непрочитанных сообщений. Легок на помине [Комедия, Фантастика, 2014] BDRip 1080p [лицензия]

Dracon

47 | 3

4.77 ГБ

В этой теме нет новых непрочитанных сообщений. Легок на помине [Комедия, Фантастика, 2014] DVD5 [лицензия]

Dracon

29 | 5

4.35 ГБ

В этой теме нет новых непрочитанных сообщений. Легок на помине [Комедия, Фантастика, 2014] Blu-ray 1080p [лицензия]

Dracon

14 | 8

21.03 ГБ

В этой теме нет новых непрочитанных сообщений. Легок на помине [Комедия, Фантастика, 2014] BDRemux 1080p [лицензия]

Dracon

4 | 2

18.88 ГБ

В этой теме нет новых непрочитанных сообщений. Приключение мистера Пибоди и Шермана / Mr. Peabody & Sherman [фантастика, комедия, приключения, семейный, 2014] BDRip, Dub [Лицензия]

salma3

1391 | 38

1.45 ГБ

В этой теме нет новых непрочитанных сообщений. Черепашки-ниндзя / Teenage Mutant Ninja Turtles[фантастика, фэнтези, боевик, комедия, приключения, 2014] BDRip, Dub [Лицензия]

Dracon

48 | 3

1.46 ГБ


Начать новую тему Ответить на тему  [ 1 сообщение ] 




Для Мосгорсуда, Роскомнадзора и рекламодателей:: mosgorsud-torrent[собачка]yandex.ru