Торрент файл
скачать торрент магнет ссылка Добавлен: 02 мар 2014, 14:29
Размер: 2.19 ГБ
Сидеров: 732
Личеров: 18
Автор

СообщениеДобавлено: 02 мар 2014, 14:29 

Не в сети
Зам. Админа
Аватара пользователя
Дата регистрации:
02 дек 2010, 12:39
Спасибо: 12623 / 214
Сообщения: 28033
Год выпуска: 2013
Страна: Россия, Украина, Германия, Великобритания, Чехия / Маринс Групп Интертеймент, Rospofilm, Step by Step Film Production
Жанр: фэнтези, триллер, приключения
Продолжительность: 02:04:53

Перевод: Не требуется
Cубтитры: нет
Оригинальная аудиодорожка: русский

Режиссер: Олег Степченко

В ролях: Джейсон Флеминг, Андрей Смоляков, Алексей Чадов, Александр Яковлев, Игорь Жижикин, Агния Дитковските, Ольга Зайцева, Валерий Золотухин, Виктор Бычков, Юрий Цурило...

Описание: Начало XVIII века. Картограф Джонатан Грин совершает научное путешествие из Европы на Восток. Проследовав через Трансильванию и преодолев Карпатские горы, он попадает в затерянную среди непроходимых лесов деревушку. Только воля случая и густой туман могли занести его в это проклятое место. Народ, живущий здесь, не похож ни на один доселе виданный путешественником. Эти люди, оградив себя от остального мира глубоким рвом, наивно верят, что смогут уберечься от нечисти, не понимая, что она уже давно поселилась в их душах и только ждёт случая, чтобы вырваться наружу. Даже в страшном сне учёный-материалист не предполагал, что здесь ему уготована встреча с верным слугой дьявола.




Качество: DVDRip / DVD9 R5
Формат: AVI
Видео: 720x400 (16:9), 25.000 fps, XviD ~ 2050 kbps avg, 0.285 bit/pixel
Аудио: 48 kHz, Dolby AC3, 6 ch, 448 kbps, русский

Общее
Полное имя : Viy.2013.O.DVDRip_[New-Team]_by_avproh.avi
Формат : AVI
Формат/Информация : Audio Video Interleave
Профиль формата : OpenDML
Размер файла : 2,19 Гбайт
Продолжительность : 2 ч. 4 м.
Общий поток : 2510 Кбит/сек
Программа кодирования : VirtualDubMod 1.5.10.3 | http://www.virtualdub-fr.org || (build 2550/release)
Библиотека кодирования : VirtualDubMod build 2550/release

Видео
Идентификатор : 0
Формат : MPEG-4 Visual
Профиль формата : Advanced Simple@L5
Параметр BVOP формата : 1
Параметр QPel формата : Нет
Параметр GMC формата : Без точки перехода
Параметр матрицы формата : Выборочная
Идентификатор кодека : XVID
Идентификатор кодека/Подсказка : XviD
Продолжительность : 2 ч. 4 м.
Битрейт : 2050 Кбит/сек
Ширина : 720 пикселей
Высота : 400 пикселей
Соотношение сторон : 16:9
Частота кадров : 25,000 кадров/сек
Цветовое пространство : YUV
Субдискретизация насыщенности : 4:2:0
Битовая глубина : 8 бит
Тип развёртки : Прогрессивная
Метод сжатия : С потерями
Бит/(Пиксели*Кадры) : 0.285
Размер потока : 1,79 Гбайт (82%)
Библиотека кодирования : XviD 73

Аудио
Идентификатор : 1
Формат : AC-3
Формат/Информация : Audio Coding 3
Расширение режима : CM (complete main)
Параметр Endianness формата : Big
Идентификатор кодека : 2000
Продолжительность : 2 ч. 4 м.
Вид битрейта : Постоянный
Битрейт : 448 Кбит/сек
Каналы : 6 каналов
Расположение каналов : Front: L C R, Side: L R, LFE
Частота : 48,0 КГц
Битовая глубина : 16 бит
Метод сжатия : С потерями
Размер потока : 400 Мбайт (18%)
Выравнивание : Разделение по промежуткам
Продолжительность промежутка : 40 мс. (1,00 видеокадр)
Время предзагрузки промежутка : 500 мс.








реклама партнёра


Вернуться к началу
 Профиль  
 
   Похожие торренты   Автор   Торрент   Размер 
В этой теме нет новых непрочитанных сообщений. Дом забытых вещей  / House of Last Things [фэнтези, триллер, 2013] HDRip, Mvo [Лицензия]

Dracon

12 | 3

2.05 ГБ

В этой теме нет новых непрочитанных сообщений. Рога / Horns (Александр Ажа) [ужасы, фэнтези, триллер, драма, 2013] BDRip-AVC, Mvo+Sub [Лицензия]

Dracon

1801 | 68

2.18 ГБ

В этой теме нет новых непрочитанных сообщений. Рога / Horns (Александр Ажа) [ужасы, фэнтези, триллер, драма, 2013] BDRip 720p, Mvo [Лицензия]

Dracon

157 | 7

6.28 ГБ

В этой теме нет новых непрочитанных сообщений. Великая стена / The Great Wall [фэнтези, боевик, триллер, приключения, 2016] BDRip, Dub+Sub [Лицензия]

salma3

606 | 211

1.46 ГБ

В этой теме нет новых непрочитанных сообщений. Гостья / The Host [фантастика, боевик, триллер, мелодрама, приключения, 2013] DVD5, Dub+Sub [Лицензия]

Dracon

28 | 4

4.37 ГБ

В этой теме нет новых непрочитанных сообщений. Отбросы / The Throwaways (Тони Буи) [фэнтези, боевик, триллер, 2015] DVDRip, Mvo [Лицензия]

Dracon

15 | 0

1.37 ГБ

В этой теме нет новых непрочитанных сообщений. Страж тьмы / Revelation [Фэнтези, триллер, драма, приключения, 2001] DVDRip, Dvo

salma3

359 | 17

1.45 ГБ


Начать новую тему Ответить на тему  [ 1 сообщение ] 




Для Мосгорсуда, Роскомнадзора и рекламодателей:: mosgorsud-torrent[собачка]yandex.ru