Торрент файл
скачать торрент магнет ссылка Добавлен: 19 фев 2014, 10:28
Размер: 1.46 ГБ
Сидеров: 391
Личеров: 7
Статус: (Dracon)
Автор

СообщениеДобавлено: 19 фев 2014, 10:28 

Не в сети
Зам. Админа
Аватара пользователя
Дата регистрации:
02 дек 2010, 12:39
Спасибо: 12461 / 214
Сообщения: 27968
Год выпуска: 2013
Страна: Россия / Alti Films
Жанр: драма
Продолжительность: 01:40:58

Перевод: Не требуется
Cубтитры: нет
Оригинальная аудиодорожка: русский

Режиссер: Геннадий Сидоров

В ролях: Игорь Триф, Ксения Собчак, Кирилл Плетнёв, Владимир Яглыч, Галина Звягинцева, Наталья Коляканова, Янис Политов, Валентина Березуцкая, Геннадий Сидоров, Далер Маджидов...

Описание: Вадим Масленников, главный герой кинокартины, — наш современник. Такой же как мы, вернее, как многие из нас. Чей-то сын, чей-то друг, чей-то враг, чей-то любимый…
А правильно ли он живет? А как нужно жить? Так, чтобы след на земле для потомков оставить? И не в буквальном смысле землю нашу топтать, а чтобы прожить достойно и самое дорогое не растерять. А нужно ли это вообще? А главное — кому нужно?
Череда извечных вопросов: важных, насущных и очень простых — терзают его мысли, соблазны рвут его душу. Он пытается найти ответы, но попадает в круговорот непонимания, жестокости, безразличия, разочарования и насилия. Насилия над самим собой, над собственным Я.
И все же он будет пытаться жить, любить, страдать, терять и ненавидеть… Но сможет ли он…? И хватит ли у него сил вернуться, откуда обычно возврата нет…




Качество: DVDRip / DVD9 R5
Формат: AVI
Видео: 720x384 (1.85:1), 25.000 fps, XviD ~ 1607 kbps avg, 0.233 bit/pixel
Аудио: 48 kHz, Dolby AC3, 6 ch, 448 kbps, русский

Общее
Полное имя : Roman.s.kokainom.2013.O.DVDRip_[New.Team]_by_avproh.avi
Формат : AVI
Формат/Информация : Audio Video Interleave
Размер файла : 1,46 Гбайт
Продолжительность : 1 ч. 40 м.
Общий поток : 2065 Кбит/сек
Программа кодирования : VirtualDubMod 1.5.10.3 | http://www.virtualdub-fr.org || (build 2550/release)
Библиотека кодирования : VirtualDubMod build 2550/release

Видео
Идентификатор : 0
Формат : MPEG-4 Visual
Профиль формата : Advanced Simple@L5
Параметр BVOP формата : 1
Параметр QPel формата : Нет
Параметр GMC формата : Без точки перехода
Параметр матрицы формата : Выборочная
Идентификатор кодека : XVID
Идентификатор кодека/Подсказка : XviD
Продолжительность : 1 ч. 40 м.
Битрейт : 1607 Кбит/сек
Ширина : 720 пикселей
Высота : 384 пикселя
Соотношение сторон : 1,85:1
Частота кадров : 25,000 кадров/сек
Цветовое пространство : YUV
Субдискретизация насыщенности : 4:2:0
Битовая глубина : 8 бит
Тип развёртки : Прогрессивная
Метод сжатия : С потерями
Бит/(Пиксели*Кадры) : 0.233
Размер потока : 1,13 Гбайт (78%)
Библиотека кодирования : XviD 73

Аудио
Идентификатор : 1
Формат : AC-3
Формат/Информация : Audio Coding 3
Расширение режима : CM (complete main)
Параметр Endianness формата : Big
Идентификатор кодека : 2000
Продолжительность : 1 ч. 40 м.
Вид битрейта : Постоянный
Битрейт : 448 Кбит/сек
Каналы : 6 каналов
Расположение каналов : Front: L C R, Side: L R, LFE
Частота : 48,0 КГц
Битовая глубина : 16 бит
Метод сжатия : С потерями
Размер потока : 324 Мбайт (22%)
Выравнивание : Разделение по промежуткам
Продолжительность промежутка : 40 мс. (1,00 видеокадр)
Время предзагрузки промежутка : 500 мс.








реклама партнёра


Вернуться к началу
 Профиль  
 
   Похожие торренты   Автор   Торрент   Размер 
В этой теме нет новых непрочитанных сообщений. Роман с кокаином [драма, 2013] DVD5

Dracon

11 | 5

4.37 ГБ

В этой теме нет новых непрочитанных сообщений. Всё и сразу (Роман Каримов) [2014, комедия, криминал, DVDRip] [Лицензия]

marya111

11 | 3

1.36 ГБ

В этой теме нет новых непрочитанных сообщений. Роль [Драма, 2013] DVDRip [Лицензия]

Dracon

337 | 10

1.46 ГБ

В этой теме нет новых непрочитанных сообщений. Дело чести [01-20 из 20] [драма, 2013] DVDRip [лицензия]

Dracon

949 | 148

10.13 ГБ

В этой теме нет новых непрочитанных сообщений. Цель вижу [военный, драма, 2013] DVDRip, [Лицензия]

Dracon

4934 | 183

1.37 ГБ

В этой теме нет новых непрочитанных сообщений. Отдать концы [драма, комедия, 2013] DVDRip [Лицензия]

Ανδρέας

1149 | 79

1.46 ГБ

В этой теме нет новых непрочитанных сообщений. Снегурочка [Драма, мелодрама, триллер, 2013] DVDRip [Лицензия]

Dracon

346 | 19

1.46 ГБ


Начать новую тему Ответить на тему  [ 1 сообщение ] 




Для Мосгорсуда, Роскомнадзора и рекламодателей:: mosgorsud-torrent[собачка]yandex.ru