Торрент файл
скачать торрент магнет ссылка Добавлен: 07 дек 2013, 16:28
Размер: 2.93 ГБ
Сидеров: 1
Личеров: 3
Автор

СообщениеДобавлено: 07 дек 2013, 16:29 

Не в сети
Зам. Админа
Аватара пользователя
Дата регистрации:
02 дек 2010, 12:39
Спасибо: 12635 / 214
Сообщения: 28010
Год выхода: 2013
Жанр: драма, криминал
Режиссер: Антон Борматов
В ролях: Александр Ратников, Павел Ерлыков, Григорий Иванец, Иван Фоминов, Дарья Мингазетдинова, Владимир Царулков, Юлия Маньковская

О фильме: Фильм о самой закрытой части футбольных болельщиков — околофутбольных хулиганах. Они — самые агрессивные и жестокие представители мира футбольных фанатов. Они — элита околофутбола. Кем бы они ни были в обычной жизни — студентами или банкирами, музыкантами или автомеханиками, на самом деле все они — одна «фирма». Попасть в «фирму» очень сложно, но если ты в ней оказался — это на всю жизнь.И обратного пути нет.





Выпущено: Россия / Фонд кино, Front Line Studio, Кинокомпания CTB
Продолжительность: 01:32:57
Озвучивание: Оригинальное

Исходник: Blu-ray
Качество: BDRip 720p
Формат: AVI
Видео:Xvid 1280x720 24fps 3879kbps
Аудио: Dolby AC3 48000Hz 6ch 448kbps

Complete name : D:\Фильмы !\Околофутбола BDRip-AVI 720p..avi
Format : AVI
Format/Info : Audio Video Interleave
Format profile : OpenDML
File size : 2.93 GiB
Duration : 1h 36mn
Overall bit rate : 4 337 Kbps
Writing application : XviD4PSP 6.0 / 53.6.0

Video
ID : 0
Format : MPEG-4 Visual
Format profile : Advanced Simple@L5
Format settings, BVOP : Yes
Format settings, QPel : No
Format settings, GMC : 3 warppoints
Format settings, Matrix : Default (H.263)
Codec ID : XVID
Codec ID/Hint : XviD
Duration : 1h 36mn
Bit rate : 3 879 Kbps
Width : 1 280 pixels
Height : 720 pixels
Display aspect ratio : 16:9
Frame rate : 24.000 fps
Color space : YUV
Chroma subsampling : 4:2:0
Bit depth : 8 bits
Scan type : Progressive
Compression mode : Lossy
Bits/(Pixel*Frame) : 0.175
Stream size : 2.62 GiB (89%)
Writing library : XviD 64

Audio
ID : 1
Format : AC-3
Format/Info : Audio Coding 3
Mode extension : CM (complete main)
Format settings, Endianness : Big
Codec ID : 2000
Duration : 1h 36mn
Bit rate mode : Constant
Bit rate : 448 Kbps
Channel(s) : 6 channels
Channel positions : Front: L C R, Side: L R, LFE
Sampling rate : 48.0 KHz
Bit depth : 16 bits
Compression mode : Lossy
Stream size : 310 MiB (10%)
Alignment : Aligned on interleaves
Interleave, duration : 32 ms (0.77 video frame)








реклама партнёра


Вернуться к началу
 Профиль  
 
   Похожие торренты   Автор   Торрент   Размер 
В этой теме нет новых непрочитанных сообщений. Три девятки / Triple 9 [Криминал, драма, триллер, 2016] BDRip 720p, Dub [Лицензия]

salma3

56 | 18

10.14 ГБ

В этой теме нет новых непрочитанных сообщений. Расплата / The Accountant [боевик, триллер, драма, криминал, 2016] BDRip 720p, Dub [Лицензия]

salma3

135 | 38

7.22 ГБ

В этой теме нет новых непрочитанных сообщений. Расплата / The Accountant (боевик, триллер, драма, криминал, 2016) BDRip 720p от HELLYWOOD | Лицензия

marya111

251 | 109

6.33 ГБ

В этой теме нет новых непрочитанных сообщений. Афера под прикрытием / The Infiltrator [триллер, драма, криминал, биография, 2016] BDRip 720p, Dub [Лицензия]

salma3

367 | 158

8.84 ГБ

В этой теме нет новых непрочитанных сообщений. Любой ценой / Hell or High Water [Драма, криминал, 2016] BDRip 720p, Dub [Лицензия]

salma3

332 | 187

6.95 ГБ

В этой теме нет новых непрочитанных сообщений. Игрок / The Gambler (Руперт Уайатт) [Триллер, Драма, Криминал, 2014] BDRip 720p, Dub [Лицензия]

Dracon

53 | 3

5.81 ГБ

В этой теме нет новых непрочитанных сообщений. Любой ценой / Hell or High Water (драма, криминал, 2016) BDRip 720p от Scarabey | Лицензия

marya111

233 | 73

5.92 ГБ


Начать новую тему Ответить на тему  [ 1 сообщение ] 




Для Мосгорсуда, Роскомнадзора и рекламодателей:: mosgorsud-torrent[собачка]yandex.ru