Торрент файл
скачать торрент магнет ссылка Добавлен: 07 дек 2013, 16:28
Размер: 2.93 ГБ
Сидеров: 1
Личеров: 3
Автор

СообщениеДобавлено: 07 дек 2013, 16:29 

Не в сети
Зам. Админа
Аватара пользователя
Дата регистрации:
02 дек 2010, 12:39
Спасибо: 12583 / 214
Сообщения: 28049
Год выхода: 2013
Жанр: драма, криминал
Режиссер: Антон Борматов
В ролях: Александр Ратников, Павел Ерлыков, Григорий Иванец, Иван Фоминов, Дарья Мингазетдинова, Владимир Царулков, Юлия Маньковская

О фильме: Фильм о самой закрытой части футбольных болельщиков — околофутбольных хулиганах. Они — самые агрессивные и жестокие представители мира футбольных фанатов. Они — элита околофутбола. Кем бы они ни были в обычной жизни — студентами или банкирами, музыкантами или автомеханиками, на самом деле все они — одна «фирма». Попасть в «фирму» очень сложно, но если ты в ней оказался — это на всю жизнь.И обратного пути нет.





Выпущено: Россия / Фонд кино, Front Line Studio, Кинокомпания CTB
Продолжительность: 01:32:57
Озвучивание: Оригинальное

Исходник: Blu-ray
Качество: BDRip 720p
Формат: AVI
Видео:Xvid 1280x720 24fps 3879kbps
Аудио: Dolby AC3 48000Hz 6ch 448kbps

Complete name : D:\Фильмы !\Околофутбола BDRip-AVI 720p..avi
Format : AVI
Format/Info : Audio Video Interleave
Format profile : OpenDML
File size : 2.93 GiB
Duration : 1h 36mn
Overall bit rate : 4 337 Kbps
Writing application : XviD4PSP 6.0 / 53.6.0

Video
ID : 0
Format : MPEG-4 Visual
Format profile : Advanced Simple@L5
Format settings, BVOP : Yes
Format settings, QPel : No
Format settings, GMC : 3 warppoints
Format settings, Matrix : Default (H.263)
Codec ID : XVID
Codec ID/Hint : XviD
Duration : 1h 36mn
Bit rate : 3 879 Kbps
Width : 1 280 pixels
Height : 720 pixels
Display aspect ratio : 16:9
Frame rate : 24.000 fps
Color space : YUV
Chroma subsampling : 4:2:0
Bit depth : 8 bits
Scan type : Progressive
Compression mode : Lossy
Bits/(Pixel*Frame) : 0.175
Stream size : 2.62 GiB (89%)
Writing library : XviD 64

Audio
ID : 1
Format : AC-3
Format/Info : Audio Coding 3
Mode extension : CM (complete main)
Format settings, Endianness : Big
Codec ID : 2000
Duration : 1h 36mn
Bit rate mode : Constant
Bit rate : 448 Kbps
Channel(s) : 6 channels
Channel positions : Front: L C R, Side: L R, LFE
Sampling rate : 48.0 KHz
Bit depth : 16 bits
Compression mode : Lossy
Stream size : 310 MiB (10%)
Alignment : Aligned on interleaves
Interleave, duration : 32 ms (0.77 video frame)








реклама партнёра


Вернуться к началу
 Профиль  
 
   Похожие торренты   Автор   Торрент   Размер 
В этой теме нет новых непрочитанных сообщений. Теория заговора / Zulu [Триллер, драма, криминал, 2013] BDRip 720p, Mvo+Sub [Лицензия]

Dracon

143 | 5

5.71 ГБ

В этой теме нет новых непрочитанных сообщений. Волк с Уолл-стрит / The Wolf of Wall Street [драма, комедия, криминал, биография, 2013] BDRip 720p, Dub+Sub [лицензия]

Dracon

3 | 4

9.29 ГБ

В этой теме нет новых непрочитанных сообщений. Черные метки / The Art of the Steal [Комедия, Криминал, 2013] BDRip 720p, Mvo [Лицензия]

Dracon

2 | 2

3.74 ГБ

В этой теме нет новых непрочитанных сообщений. Кровавая месть / In the Blood [триллер, боевик, криминал, 2013] BDRip 720p, Dub+Sub [Лицензия]

Dracon

35 | 5

19.61 ГБ

В этой теме нет новых непрочитанных сообщений. Кровавая месть / In the Blood [триллер, боевик, криминал, 2013] BDRip 720p, Dub [Лицензия]

Dracon

381 | 21

4.64 ГБ

В этой теме нет новых непрочитанных сообщений. Гангста Love / Rob the Mob [драма, криминал, 2014] BDRip 720p, Dub+Sub [Лицензия]

Dracon

328 | 18

4.82 ГБ

В этой теме нет новых непрочитанных сообщений. Тропы / Tracks [драма, приключения, биография, 2013] BDRip 720p, Mvo+Sub [лицензия]

Dracon

90 | 3

6.14 ГБ


Начать новую тему Ответить на тему  [ 1 сообщение ] 




Для Мосгорсуда, Роскомнадзора и рекламодателей:: mosgorsud-torrent[собачка]yandex.ru