Торрент файл
скачать торрент магнет ссылка Добавлен: 01 дек 2013, 13:57
Размер: 4.77 ГБ
Сидеров: 7
Личеров: 2
Автор

СообщениеДобавлено: 01 дек 2013, 13:57 

Не в сети
2 Звезды
Аватара пользователя
Дата регистрации:
10 окт 2010, 20:23
Возраст: 61
Спасибо: 179 / 0
Сообщения: 323
Откуда: КРАСНОГОРСК
Сталинград / STALINGRAD

Год выпуска: 2013
Выпущено: РОССИЯ , Арт Пикчерс Студия, Нон-стоп Продакшн, Main Road Post , Illusion Industries грим
Жанр: Военный, драма, боевик
Продолжительность: 02:05:29
Перевод:НЕ ТРЕБУЕТСЯ
Субтитры : отсутствуют



Режиссер: Фёдор Бондарчук

В ролях: Пётр Фёдоров, Томас Кречманн, Мария Смольникова, Янина Студилина, Дмитрий Лысенков, Алексей Барабаш, Андрей Смоляков, Сергей Бондарчук, Олег Волку, Хайнер Лаутербах, Олег Тилькин, Ян Кузьмин, Кирилл Варакса, Полина Райкина, Юрий Уткин, Олег Малышев


1942-й год. Сталинград. Советские войска планируют контрнаступление на немецкие части, занявшие правый берег Волги. Наступление сорвано. Лишь разведчикам под командованием капитана Громова удается перебраться на другой берег и закрепиться в одном из домов. Им дан приказ удержать его любой ценой. Кроме нескольких чудом уцелевших советских солдат они находят в доме его последнюю жительницу — 19-летнюю Катю.

Приказ отбить дом, захваченный противником, получает немецкий офицер Кан. На фоне одного из самых кровопролитных сражений в истории человечества разворачиваются истории любви и драматического противостояния характеров.


Качество: DVDRip-AVCИСХОДНИК DVD 9
Формат: MPEG-4
Видео кодек: H264
Видео: 4993Кбит/сек,720х480(3/2),в 29.70кадр/сек,AVC(NTSC)(Baseline@L3.0)(1Ref Frames)
Аудио кодек: AAC
Аудио Russian Dolby Digital 5.1: 437Кбит/сек,44.1КГц,6каналов,AAC,(Version4)(LC)

Звуковая дорожка сделана путем наложения чистого голоса озвучивателей на центральный канал оригинальной дорожки. Качество идентично звуковой дорожке.


General
Полное имя : D:\Новая папка (2)\STALINGRAD_2013_RUS__DD5.1_x264_Nikolai.Baranov_DVDRip-AVC.mp4
Формат : MPEG-4
Профиль формата : Base Media
Идентификатор кодека : isom
Размер файла : 4.77 GiB
Продолжительность : 2h 5mn
Режим общего битрейта : Variable
Общий поток : 5 437 Kbps
Дата кодирования : UTC 2013-11-30 17:05:01
Дата пометки : UTC 2013-11-30 17:05:01
Программа кодирования : Lavf51.12.1

Video
Идентификатор : 1
Формат : AVC
Формат/Информация : Advanced Video Codec
Профиль формата : Baseline@L3.0
Параметр CABAC формата : No
Параметр ReFrames формата : 1 frame
Параметр GOP формата : M=1, N=12
Идентификатор кодека : avc1
Идентификатор кодека/Информация : Advanced Video Coding
Продолжительность : 2h 5mn
Вид битрейта : Variable
Битрейт : 4 993 Kbps
Максимальный битрейт : 6 000 Kbps
Ширина : 720 pixels
Высота : 480 pixels
Соотношение сторон : 3:2
Режим частоты кадров : Constant
Частота кадров : 29.970 fps
Частота кадров в оригинале : 24.000 fps
Стандарт вещания : NTSC
Цветовое пространство : YUV
Субдискретизация насыщенности : 4:2:0
Битовая глубина : 8 bits
Тип развёртки : Progressive
Бит/(Пиксели*Кадры) : 0.482
Размер потока : 4.38 GiB (92%)
Дата кодирования : UTC 2013-11-30 17:05:01
Дата пометки : UTC 2013-11-30 17:05:01

Audio
Идентификатор : 2
Формат : AAC
Формат/Информация : Advanced Audio Codec
Профиль формата : LC
Идентификатор кодека : 40
Продолжительность : 2h 5mn
Вид битрейта : Variable
Битрейт : 437 Kbps
Каналы : 6 channels
Расположение каналов : Front: L C R, Side: L R, LFE
Частота : 44.1 KHz
Метод сжатия : Lossy
Размер потока : 392 MiB (8%)
Дата кодирования : UTC 2013-11-30 17:05:01
Дата пометки : UTC 2013-11-30 17:05:01








Релиз от: Nikolai.Baranov







_________________

Легко быть оптимистом, когда судьба не валит с ног тяжелыми ударами, а лишь иногда легонько шлепает по заднице.


Последний раз редактировалось Nikolai.Baranov 01 дек 2013, 23:23, всего редактировалось 1 раз.


реклама партнёра


Вернуться к началу
 Профиль Отправить личное сообщение  
 
   Похожие торренты   Автор   Торрент   Размер 
В этой теме нет новых непрочитанных сообщений. Сталинград [военный, драма, боевик, 2013] BDRip 1008p [Лицензия]

Dracon

30 | 8

4.05 ГБ

В этой теме нет новых непрочитанных сообщений. Крепость: щитом и мечом (Федор Дмитриев) [мультфильм, приключения, военный, 2015] HDRip [Лицензия]

Dracon

325 | 99

1.36 ГБ

В этой теме нет новых непрочитанных сообщений. Уцелевший / Lone Survivor [боевик, триллер, драма, военный, 2013] Blu-Ray 1080p, Dub+Sub [Лицензия]

Dracon

26 | 4

26.46 ГБ

В этой теме нет новых непрочитанных сообщений. Уцелевший / Lone Survivor [боевик, триллер, драма, военный, 2013] HDRip, Dub [Лицензия]

Dracon

242 | 5

2.05 ГБ

В этой теме нет новых непрочитанных сообщений. Крепость: щитом и мечом (Федор Дмитриев) [мультфильм, приключения, военный, 2015] BDRip 720p [Лицензия]

Dracon

74 | 48

3.73 ГБ

В этой теме нет новых непрочитанных сообщений. Крепость: щитом и мечом (Федор Дмитриев) [мультфильм, приключения, военный, 2015] BDRip 1080p [Лицензия]

Dracon

65 | 3

6.92 ГБ

В этой теме нет новых непрочитанных сообщений. Уцелевший / Lone Survivor [боевик, триллер, драма, военный, 2013] Blu-Ray Remux 1080p, Dub+Sub [Лицензия]

Dracon

19 | 4

25.07 ГБ


СообщениеДобавлено: 01 дек 2013, 15:41 

Не в сети
Зам. Админа
Аватара пользователя
Дата регистрации:
02 дек 2010, 12:39
Спасибо: 12461 / 214
Сообщения: 27968
Сделай что бы скрны открывались в полный размер...


Вернуться к началу
 Профиль  
 
Начать новую тему Ответить на тему  [ Сообщений: 2 ] 




Для Мосгорсуда, Роскомнадзора и рекламодателей:: mosgorsud-torrent[собачка]yandex.ru