Торрент файл
скачать торрент магнет ссылка Добавлен: 11 ноя 2013, 18:20
Размер: 745.32 МБ
Сидеров: 134
Личеров: 4
Статус: (Aleksandr.ru)
Автор

СообщениеДобавлено: 11 ноя 2013, 18:20 

Не в сети
Супермодератор
Аватара пользователя
Дата регистрации:
22 май 2010, 12:40
Спасибо: 2027 / 98
Сообщения: 2963
Откуда: Н.Новгород
Информация о фильме
Название: Перцы
Год выхода: 2013
Жанр: Комедия, мелодрама
Режиссер: Игорь Копылов
В ролях: Александр Ткачев, Денис Рожков, Татьяна Колганова, Кирилл Полухин, Сергей Кошонин, Ольга Кирсанова, Роман Агеев, Мария Антонова

О фильме:
Максим Савельев, выпускник 11-го класса, эгоцентричный и разбалованный сын олигарха, получает в подарок телевизионную передачу. Но на первой же съемке Максим узнает, что участие в передаче не сможет его прославить. Дело в том, что передача посвящена празднику выпускников Алые Паруса, и главными героями там будут выпускники из разных социальных слоев, а кульминационным событием передачи станет прогулка на корабле по Неве. Максим устраивает сцену родителям, и это становится последней каплей в отношениях с отцом. Валерий Викторович Савельев добился своего богатства собственным трудом, и ему давно не нравились закидоны сына. Он ставит своему отпрыску ультиматум - или участие в передаче, или отправка в армию. Максим не хочет служить и на следующий день приходит на съёмки. Но тут начинается целая цепь событий, которая ставит выход передачи под угрозу, и Максим бросается спасать ненавистное ему шоу...


Страна: Россия
Студия: Триикс Медиа
Продолжительность: 01:33:10
Перевод: Не требуется

Файл
Кодек: XviD
Качество: SATRip
Видео: 688x384 (1.79:1), 25 fps, XviD build 50 ~981 kbps avg, 0.15 bit/pixel
Звук: 48 kHz, MPEG Layer 3, 2 ch, ~128.00 kbps avg
Субтитры: нет

Семпл

Общее
Полное имя : S:ФильмыПерцы. 2013. SATRip. (AleksSin).avi
Формат : AVI
Формат/Информация : Audio Video Interleave
Размер файла : 745 Мбайт
Продолжительность : 1 ч. 33 м.
Общий поток : 1118 Кбит/сек
Программа кодирования : VirtualDubMod 1.5.10.3 | http://www.virtualdub-fr.org || (build 2550/release)
Библиотека кодирования : VirtualDubMod build 2550/release

Видео
Идентификатор : 0
Формат : MPEG-4 Visual
Профиль формата : Advanced Simple@L5
Параметр BVOP формата : 2
Параметр QPel формата : Нет
Параметр GMC формата : Без точки перехода
Параметр матрицы формата : Default (H.263)
Идентификатор кодека : XVID
Идентификатор кодека/Подсказка : XviD
Продолжительность : 1 ч. 33 м.
Битрейт : 981 Кбит/сек
Ширина : 688 пикс.
Высота : 384 пикс.
Соотношение сторон : 16:9
Частота кадров : 25,000 кадр/сек
Цветовое пространство : YUV
Подвыборка цветности : 4:2:0
Битовая глубина : 8 бит
Тип развёртки : Прогрессивная
Метод сжатия : С потерями
Бит/(Пиксели*Кадры) : 0.148
Размер потока : 654 Мбайт (88%)
Библиотека кодирования : XviD 1.2.1 (UTC 2008-12-04)

Аудио
Идентификатор : 1
Формат : MPEG Audio
Версия формата : Version 1
Профиль формата : Layer 3
Идентификатор кодека : 55
Идентификатор кодека/Подсказка : MP3
Продолжительность : 1 ч. 33 м.
Вид битрейта : Постоянный
Битрейт : 128 Кбит/сек
Каналы : 2 канала
Частота : 48,0 КГц
Метод сжатия : С потерями
Размер потока : 85,3 Мбайт (11%)
Выравнивание : Соединение по промежуткам
Продолжительность промежутка : 40 мс. (1,00 видеокадр)
Время предзагрузки промежутка : 504 ms
Библиотека кодирования : LAME3.99r
Настройки программы : -m s -V 4 -q 2 -lowpass 17 -b 128





реклама партнёра


Вернуться к началу
 Профиль Отправить личное сообщение  
 
   Похожие торренты   Автор   Торрент   Размер 
В этой теме нет новых непрочитанных сообщений. Голые перцы / Search Party (Скот Армстронг) [комедия, 2014] WEB-DLRip, Dub [iTunes]

Dracon

11 | 3

1.37 ГБ

В этой теме нет новых непрочитанных сообщений. Голые перцы / Search Party (Скот Армстронг) [комедия, 2014] HDRip, Dub [iTunes]

Dracon

5 | 0

1.46 ГБ

В этой теме нет новых непрочитанных сообщений. Голые перцы / Search Party (Скот Армстронг) [комедия, 2014] BDRip 1080p, Dub [iTunes]

Dracon

227 | 17

7.9 ГБ

В этой теме нет новых непрочитанных сообщений. Голые перцы / Search Party (Скот Армстронг) [комедия, 2014] WEB-DLRip, dub [Чистый звук]

Dracon

10 | 3

1.37 ГБ

В этой теме нет новых непрочитанных сообщений. Голые перцы / Search Party (Скот Армстронг) [комедия, 2014] BDRip 720p, Dub [iTunes]

Dracon

234 | 13

4.62 ГБ

В этой теме нет новых непрочитанных сообщений. Голые перцы / Search Party (Скот Армстронг) [комедия, 2014] WEB-DLRip, dub [Чистый звук]

Dracon

3 | 3

699.89 МБ

В этой теме нет новых непрочитанных сообщений. Голые перцы / Search Party (Скот Армстронг) [комедия, 2014] WEB-DLRip 1080p, Dub [iTunes]

Dracon

30 | 4

3.02 ГБ


Начать новую тему Ответить на тему  [ 1 сообщение ] 




Для Мосгорсуда, Роскомнадзора и рекламодателей:: mosgorsud-torrent[собачка]yandex.ru