Торрент файл
скачать торрент магнет ссылка Добавлен: 08 ноя 2013, 10:43
Размер: 1.37 ГБ
Сидеров: 340
Личеров: 16
Статус: (salma3)
Автор

СообщениеДобавлено: 08 ноя 2013, 10:43 

Не в сети
Зам. Админа
Аватара пользователя
Дата регистрации:
02 дек 2010, 12:39
Спасибо: 12597 / 214
Сообщения: 28049
Год выпуска: 2013
Жанр: Боевик, криминал
Режиссер: Андрей Элинсон
В ролях: Александр Устюгов, Сергей Перегудов, Мария Синяева, Геннадий Алимпиев, Алексей Федотов, Светлана Смирнова

Описание: После увольнения из ГУВД Роман Шилов решает уделить время своей личной жизни. Но встрече с Максаковой, с которой он давно мечтал объясниться, мешает звонок от жены Михаила Краснова, показания которого когда-то помоги посадить за решётку опасного убийцу. Надя Краснова в слезах сообщает Шилову, что Михаила похитили неизвестные. Бросившись на выручку старого приятеля, Шилов попадает в криминальный водоворот, разрушивший спокойную жизнь провинциального городка, в котором Красновы владели автомастерской. Местный вор в законе по прозвищу Профессор ищет пропавший воровской «общак» и обвиняет в его исчезновении Краснова.

Выпущено: Россия, "ВайТ Медиа"
Продолжительность: 01:31:17
Язык: Русский

Качество: SATRip
Видео: XviD, 1947 Кбит/с, 720x400
Аудио rus: AC3, 2 ch, 192 Кбит/с

Полное имя : D:Moja.familija.Shilov.2013.tahiy.avi
Формат : AVI
Формат/Информация : Audio Video Interleave
Размер файла : 1,37 Гбайт
Продолжительность : 1 ч. 31 м.
Общий поток : 2149 Кбит/сек
Название фильма : Моя фамилия Шилов / 2013 - = Rip by tahiy = -
Программа кодирования : VirtualDubMod 1.5.10.3 | http://www.virtualdub-fr.org || (build 2550/release)

Видео
Идентификатор : 0
Формат : MPEG-4 Visual
Профиль формата : Advanced Simple@L5
Параметр BVOP формата : 1
Параметр QPel формата : Нет
Параметр GMC формата : Без точки перехода
Параметр матрицы формата : Default (MPEG)
Идентификатор кодека : XVID
Идентификатор кодека/Подсказка : XviD
Продолжительность : 1 ч. 31 м.
Битрейт : 1947 Кбит/сек
Ширина : 720 пикселей
Высота : 400 пикселей
Соотношение сторон : 16:9
Частота кадров : 25,000 кадров/сек
Цветовое пространство : YUV
Субдискретизация насыщенности : 4:2:0
Битовая глубина : 8 бит
Тип развёртки : Прогрессивная
Метод сжатия : С потерями
Бит/(Пиксели*Кадры) : 0.270
Размер потока : 1,24 Гбайт (91%)
Библиотека кодирования : XviD 1.2.1 (UTC 2008-12-04)

Аудио
Идентификатор : 1
Формат : AC-3
Формат/Информация : Audio Coding 3
Расширение режима : CM (complete main)
Параметр Endianness формата : Big
Идентификатор кодека : 2000
Продолжительность : 1 ч. 31 м.
Вид битрейта : Постоянный
Битрейт : 192 Кбит/сек
Каналы : 2 канала
Расположение каналов : Front: L R
Частота : 48,0 КГц
Битовая глубина : 16 бит
Метод сжатия : С потерями
Размер потока : 125 Мбайт (9%)
Выравнивание : Разделение по промежуткам
Продолжительность промежутка : 40 мс. (1,00 видеокадр)
Время предзагрузки промежутка : 500 мс.





реклама партнёра


Вернуться к началу
 Профиль  
 
   Похожие торренты   Автор   Торрент   Размер 
В этой теме нет новых непрочитанных сообщений. Государственная защита-3 [01-16 из 16] [2013 г., Детектив, криминал] SATRip

iopuk60

2 | 2

8.67 ГБ

В этой теме нет новых непрочитанных сообщений. Литейный 4 [08х01-30 из 30] [Детектив, криминал, 2013] SATRip

Dracon

51 | 26

18 ГБ

В этой теме нет новых непрочитанных сообщений. Любить нельзя ненавидеть [01-08 из 08] [Мелодрама, криминал, 2013] SATRip

Dracon

378 | 57

4.3 ГБ

В этой теме нет новых непрочитанных сообщений. Ментовские войны 7 [01-24 из 24] [Боевик, детектив, криминал, 2013] WEBRip

iopuk60

2 | 3

13.02 ГБ

В этой теме нет новых непрочитанных сообщений. Шеф 2 [S02] (Олег Ларин) [Боевик, криминал, детектив, 2013] HDTVRip

Dracon

481 | 213

17.19 ГБ

В этой теме нет новых непрочитанных сообщений. На работе / On the Job [Боевик, триллер, драма, криминал, 2013] BDRip, Avo

salma3

482 | 154

1.46 ГБ

В этой теме нет новых непрочитанных сообщений. Шеф 2 [S02] (Олег Ларин) [Боевик, криминал, детектив, 2013] HDTVRip 720p, Mvo

Dracon

73 | 155

49.78 ГБ


Начать новую тему Ответить на тему  [ 1 сообщение ] 




Для Мосгорсуда, Роскомнадзора и рекламодателей:: mosgorsud-torrent[собачка]yandex.ru