Торрент файл
скачать торрент магнет ссылка Добавлен: 29 окт 2013, 09:44
Размер: 1.46 ГБ
Сидеров: 152
Личеров: 12
Статус: (salma3)
Автор

СообщениеДобавлено: 29 окт 2013, 09:44 

Не в сети
Зам. Админа
Аватара пользователя
Дата регистрации:
02 дек 2010, 12:39
Спасибо: 12461 / 214
Сообщения: 27968

Страна: Россия, Нидерланды, Германия / Algemene Vereniging Radio Omroep (AVRO), Jos Stelling Filmprodukties BV, Ma.ja.de. Fiction, Твинди
Жанр: драма
Год выпуска: 2012
Продолжительность: 02:02:17

Перевод: не требуется
Cубтитры: русский, английский
Оригинальная аудиодорожка: русский

Режиссер: Йос Стеллинг / Jos Stelling

В ролях: Сильвия Хукс, Леонид Бичевин, Сергей Маковецкий, Максим Ковалевский, Джим ван дер Вауде, Анри Гарсен, Ева-Мария Курц, Светлана Светличная

Описание: Николай возвращается в заброшенный отель, где пятьдесят лет назад он встретил свою единственную любовь. Охваченный воспоминаниями, он заново переживает трагическую историю своей юности, являясь одновременно рассказчиком и героем повествования. Действие разворачивается в трех временных пластах — в конце XIX века (времена юности героя), в пятидесятые годы XX века и в наши дни


Качество: DVDRip / DVD9 R5
Формат: AVI

Видео: 720x304 (2.35:1), 25.000 fps, XVID ~1248 kbps avg, 0.228 bit/pixel
Аудио: Русский 48 kHz, AC3, 6 ch, 448.00 kbps Constant

Раздача от:

Общее
Полное имя : Devushka.i.smert.2012.O.DVDRip_[Youtracker]_by_avproh.avi
Формат : AVI
Формат/Информация : Audio Video Interleave
Размер файла : 1,46 Гбайт
Продолжительность : 2 ч. 2 м.
Общий поток : 1705 Кбит/сек
Программа кодирования : VirtualDubMod 1.5.10.3 | http://www.virtualdub-fr.org || (build 2550/release)
Библиотека кодирования : VirtualDubMod build 2550/release

Видео
Идентификатор : 0
Формат : MPEG-4 Visual
Профиль формата : Advanced Simple@L5
Параметр BVOP формата : 1
Параметр QPel формата : Нет
Параметр GMC формата : Без точки перехода
Параметр матрицы формата : Выборочная
Идентификатор кодека : XVID
Идентификатор кодека/Подсказка : XviD
Продолжительность : 2 ч. 2 м.
Битрейт : 1248 Кбит/сек
Ширина : 720 пикселей
Высота : 304 пикселя
Соотношение сторон : 2,35:1
Частота кадров : 25,000 кадров/сек
Цветовое пространство : YUV
Субдискретизация насыщенности : 4:2:0
Битовая глубина : 8 бит
Тип развёртки : Прогрессивная
Метод сжатия : С потерями
Бит/(Пиксели*Кадры) : 0.228
Размер потока : 1,07 Гбайт (73%)
Библиотека кодирования : XviD 73

Аудио
Идентификатор : 1
Формат : AC-3
Формат/Информация : Audio Coding 3
Расширение режима : CM (complete main)
Параметр Endianness формата : Big
Идентификатор кодека : 2000
Продолжительность : 2 ч. 2 м.
Вид битрейта : Постоянный
Битрейт : 448 Кбит/сек
Каналы : 6 каналов
Расположение каналов : Front: L C R, Side: L R, LFE
Частота : 48,0 КГц
Битовая глубина : 16 бит
Метод сжатия : С потерями
Размер потока : 392 Мбайт (26%)
Выравнивание : Разделение по промежуткам
Продолжительность промежутка : 40 мс. (1,00 видеокадр)
Время предзагрузки промежутка : 500 мс.







реклама партнёра


Вернуться к началу
 Профиль  
 
   Похожие торренты   Автор   Торрент   Размер 
В этой теме нет новых непрочитанных сообщений. Смерть и девушка / Death and the Maiden [Триллер, Драма, 1994] WEB-DLRip, Mvo

salma3

0 | 2

1.47 ГБ

В этой теме нет новых непрочитанных сообщений. Decorator - Девушка И Смерть [2010, Indie, Electronic, Death Pop, MP3]

PriZraK

2 | 2

240.85 МБ

В этой теме нет новых непрочитанных сообщений. Смерть и девушка / Death and The Maiden [триллер, 1994] WEB-DL 720p, Mvo+Sub

salma3

38 | 0

3.29 ГБ

В этой теме нет новых непрочитанных сообщений. Девушка по вызову / Call Girl [триллер, драма, 2012] BDRemux 1080p, Dvo [НТВ+]

salma3

17 | 9

35.84 ГБ

В этой теме нет новых непрочитанных сообщений. Смерть супергероя / Death of a Superhero [Драма, 2011] BDRip 720p, Mvo [Лицензия]

salma3

13 | 4

3.34 ГБ

В этой теме нет новых непрочитанных сообщений. Девушка из кафе / The Girl in the Café [драма, мелодрама, 2005] DVDRip, Dvo

salma3

8 | 2

1.46 ГБ

В этой теме нет новых непрочитанных сообщений. Солнечная девушка / Girl In The Sunny Place / Hidamari no Kanojo (Такахиро Мики / Takahiro Miki) [2013г., драма, романтика, DVDRip] Sub

Alfredovich

7 | 4

1.8 ГБ


Начать новую тему Ответить на тему  [ 1 сообщение ] 




Для Мосгорсуда, Роскомнадзора и рекламодателей:: mosgorsud-torrent[собачка]yandex.ru