Торрент файл
скачать торрент магнет ссылка Добавлен: 03 окт 2013, 17:48
Размер: 1.46 ГБ
Сидеров: 21
Личеров: 3
Статус: (salma3)
Автор

СообщениеДобавлено: 03 окт 2013, 17:48 

Не в сети
Зам. Админа
Аватара пользователя
Дата регистрации:
02 дек 2010, 12:39
Спасибо: 12461 / 214
Сообщения: 27968
Страна: Россия, Германия, Нидерланды, Латвия, Беларусь
Жанр: драма, военный, история

Год выпуска: 2012

Продолжительность: 02:07:45


Перевод: Не требуется

Режиссер: Сергей Лозница

В ролях: Владимир Свирский (Сущеня), Владислав Абашин (Буров), Сергей Колесов (Войтик), Никита Перемотов (Гриша), Юлия Пересильд (Анеля), Кирилл Петров (Коробань), Дмитрий Колосов (Мишук), Степан Богданов (Топчиевский), Дмитрий Быковский (Ярошевич), Влад Иванов (Гроссмайер), Игорь Хрипунов (Мироха), Надежда Маркина (мать Бурова)


Описание: Действие исторической драмы происходит в 1942 году в оккупированной немцами Белоруссии. Путевого обходчика Сущеню ложно обвиняют в сотрудничестве с оккупантами. Два партизана приезжают на хутор к Сущене, чтобы совершить расправу. В надежде доказать свою невиновность Сущеня пытается сделать моральный выбор в аморальных обстоятельствах.





Качество: BDRip
Контейнер: AVI
Видео: XviD, 720x304 (2.35:1), 1430 kbps, 24 fps, 0,272 bpp
Аудио: AC3 / 2.0 / 48 kHz / 192 kbps / 16 bit



Общее
Полное имя : E:My_ripV.tumane.2012.BDRip.[Youtracker] .avi
Формат : AVI
Формат/Информация : Audio Video Interleave
Размер файла : 1,46 Гбайт
Продолжительность : 2 ч. 7 м.
Общий поток : 1632 Кбит/сек
Программа кодирования : VirtualDubMod 1.5.10.3 | http://www.virtualdub-fr.org || (build 2550/release)
Библиотека кодирования : VirtualDubMod build 2550/release

Видео
Идентификатор : 0
Формат : MPEG-4 Visual
Профиль формата : Advanced Simple@L5
Параметр BVOP формата : 2
Параметр QPel формата : Нет
Параметр GMC формата : Без точки перехода
Параметр матрицы формата : Выборочная
Идентификатор кодека : XVID
Идентификатор кодека/Подсказка : XviD
Продолжительность : 2 ч. 7 м.
Битрейт : 1430 Кбит/сек
Ширина : 720 пикселей
Высота : 304 пикселя
Соотношение сторон : 2,35:1
Частота кадров : 24,000 кадра/сек
Цветовое пространство : YUV
Субдискретизация насыщенности : 4:2:0
Битовая глубина : 8 бит
Тип развёртки : Прогрессивная
Метод сжатия : С потерями
Бит/(Пиксели*Кадры) : 0.272
Размер потока : 1,28 Гбайт (88%)
Библиотека кодирования : XviD 65

Аудио
Идентификатор : 1
Формат : AC-3
Формат/Информация : Audio Coding 3
Расширение режима : CM (complete main)
Параметр Endianness формата : Big
Идентификатор кодека : 2000
Продолжительность : 2 ч. 7 м.
Вид битрейта : Постоянный
Битрейт : 192 Кбит/сек
Каналы : 2 канала
Расположение каналов : Front: L R
Частота : 48,0 КГц
Битовая глубина : 16 бит
Метод сжатия : С потерями
Размер потока : 175 Мбайт (12%)
Выравнивание : Разделение по промежуткам
Продолжительность промежутка : 42 мс. (1,00 видеокадр)
Время предзагрузки промежутка : 500 мс.


Раздача от:




реклама партнёра


Вернуться к началу
 Профиль  
 
   Похожие торренты   Автор   Торрент   Размер 
В этой теме нет новых непрочитанных сообщений. Император / Emperor [драма, военный, история, 2012] BDRip 1080p, Mvo

Dracon

27 | 4

10.65 ГБ

В этой теме нет новых непрочитанных сообщений. Бомбежка / Het Bombardement [драма, военный, история, 2012] BDRip 720p, Dvo [НТВ+]

salma3

4 | 2

4.51 ГБ

В этой теме нет новых непрочитанных сообщений. В белом плену / Into the White / Comrade [драма, военный, 2012] BDRip 1080p, Mvo+Avo+Sub [Лицензия]

salma3

29 | 4

9.28 ГБ

В этой теме нет новых непрочитанных сообщений. Храброе сердце / Braveheart [боевик, драма, военный, биография, история, 1995] Blu-Ray, Dub+Sub [Лицензия]

salma3

61 | 67

37.24 ГБ

В этой теме нет новых непрочитанных сообщений. Император / Emperor [драма, военный, история, 2012] HDRip, Mvo

Dracon

737 | 12

1.36 ГБ

В этой теме нет новых непрочитанных сообщений. 1911 / Падение последней империи / Xinhai geming [боевик, драма, приключения, военный, история, 2011] DVD5, Mvo+Sub Лицензия

salma3

7 | 2

4.36 ГБ

В этой теме нет новых непрочитанных сообщений. Колетт / Colette [драма, мелодрама, военный, история, 2013] BDRip 720p , avo+sub

Dracon

40 | 4

5.75 ГБ


Начать новую тему Ответить на тему  [ 1 сообщение ] 




Для Мосгорсуда, Роскомнадзора и рекламодателей:: mosgorsud-torrent[собачка]yandex.ru