Торрент файл
скачать торрент магнет ссылка Добавлен: 20 июл 2013, 11:58
Размер: 1.46 ГБ
Сидеров: 25
Личеров: 4
Автор

СообщениеДобавлено: 20 июл 2013, 11:58 

Не в сети
Супермодератор
Аватара пользователя
Дата регистрации:
15 фев 2012, 16:44
Возраст: 27
Спасибо: 5143 / 2090
Сообщения: 17514
Страна: Россия
Студия: Cine Fantom
Жанр: драма
Год выпуска: 2012
Продолжительность: 01:42:20

Перевод: не требуется
Оригинальная аудиодорожка: русский
Cубтитры: нет

Режиссер: Светлана Баскова

В ролях: Сергей Пахомов, Владимир Епифанцев, Виктор Сергачев, Лаврентий Светличный, Денис Яковлев, Михаил Калинкин, Александр Ковалев

Описание: Фильм основан на событиях кризисного времени, когда владельцы производства пытаются решать свои проблемы за счет рабочих людей, обнищавших за последние годы. Главный конфликт внутри фильма между — новыми капиталистами и рабочим классом, вышедшем из советского времени. «Новыми русскими» и советскими рабочими.






Исходник: DVD5 R5
Качество: DVDRip
Формат: AVI
Видео: 720x384 (1.85:1), 25.000 fps, XViD ~ 1580 kbps avg, 0.229 bit/pixel
Аудио: 48 kHz, АС3 6 ch, 448 kbps, русский

Раздача от:
Общее
Полное имя : Za.Marksa.2012.O.DVDRip_[Youtracker]_by_avproh.avi
Формат : AVI
Формат/Информация : Audio Video Interleave
Размер файла : 1,46 Гбайт
Продолжительность : 1 ч. 42 м.
Общий поток : 2038 Кбит/сек
Программа кодирования : VirtualDubMod 1.5.10.3 | http://www.virtualdub-fr.org || (build 2550/release)
Библиотека кодирования : VirtualDubMod build 2550/release

Видео
Идентификатор : 0
Формат : MPEG-4 Visual
Профиль формата : Advanced Simple@L5
Параметр BVOP формата : 1
Параметр QPel формата : Нет
Параметр GMC формата : Без точки перехода
Параметр матрицы формата : Выборочная
Идентификатор кодека : XVID
Идентификатор кодека/Подсказка : XviD
Продолжительность : 1 ч. 42 м.
Битрейт : 1580 Кбит/сек
Ширина : 720 пикселей
Высота : 384 пикселя
Соотношение сторон : 1,85:1
Частота кадров : 25,000 кадров/сек
Цветовое пространство : YUV
Субдискретизация насыщенности : 4:2:0
Битовая глубина : 8 бит
Тип развёртки : Прогрессивная
Метод сжатия : С потерями
Бит/(Пиксели*Кадры) : 0.229
Размер потока : 1,13 Гбайт (78%)
Библиотека кодирования : XviD 65

Аудио
Идентификатор : 1
Формат : AC-3
Формат/Информация : Audio Coding 3
Расширение режима : CM (complete main)
Параметр Endianness формата : Big
Идентификатор кодека : 2000
Продолжительность : 1 ч. 42 м.
Вид битрейта : Постоянный
Битрейт : 448 Кбит/сек
Каналы : 6 каналов
Расположение каналов : Front: L C R, Side: L R, LFE
Частота : 48,0 КГц
Битовая глубина : 16 бит
Метод сжатия : С потерями
Размер потока : 328 Мбайт (22%)
Выравнивание : Разделение по промежуткам
Продолжительность промежутка : 40 мс. (1,00 видеокадр)
Время предзагрузки промежутка : 500 мс.





реклама партнёра


Вернуться к началу
 Профиль Отправить личное сообщение  
 
   Похожие торренты   Автор   Торрент   Размер 
В этой теме нет новых непрочитанных сообщений. Ты и я навсегда / You & Me Forever [драма, 2012] DVDRip, Mvo [Лицензия]

Dracon

38 | 5

1.36 ГБ

В этой теме нет новых непрочитанных сообщений. Испанец (Александр Цацуев) [2012, драма, DVDRip | лицензия]

Nickolas3435

35 | 10

746.64 МБ

В этой теме нет новых непрочитанных сообщений. Афроiдиты [Комедия, 2012] DVDRip [лицензия]

Dracon

19 | 1

1.46 ГБ

В этой теме нет новых непрочитанных сообщений. Муж двух жен / Run for Your Wife [комедия, 2012] DVDRip, Mvo [лицензия]

salma3

192 | 4

1.46 ГБ

В этой теме нет новых непрочитанных сообщений. Алчность / Avarice [фантастика, 2012] DVDRip, Mvo [Лицензия]

salma3

351 | 6

1.37 ГБ

В этой теме нет новых непрочитанных сообщений. 7 ящиков / 7 cajas [Боевик, триллер, 2012] DVDRip, Mvo [лицензия]

Dracon

50 | 2

2.05 ГБ

В этой теме нет новых непрочитанных сообщений. Эмпайр Стэйт / Empire State [криминал, драма, 2012] BDRip, Mvo [лицензия]

Dracon

120 | 4

2.2 ГБ


Начать новую тему Ответить на тему  [ 1 сообщение ] 




Для Мосгорсуда, Роскомнадзора и рекламодателей:: mosgorsud-torrent[собачка]yandex.ru