Торрент файл
скачать торрент магнет ссылка Добавлен: 07 май 2013, 19:20
Размер: 2.19 ГБ
Сидеров: 106
Личеров: 5
Статус: (salma3)
Автор

СообщениеДобавлено: 07 май 2013, 19:20 

В сети
Супермодератор
Аватара пользователя
Дата регистрации:
15 фев 2012, 16:44
Возраст: 27
Спасибо: 5143 / 2090
Сообщения: 17495
Страна: Россия
Производство: "ВВП Альянс"
Жанр:фантастика, драма, военный
Год выпуска: 2012
Продолжительность: 02:27:42

Перевод: не требуется
Оригинальная аудиодорожка: русский
Cубтитры: нет

Режиссёр: Иван Шурховецкий

В ролях:
Григорий Калинин, Дмитрий Сергин, Артем Крестников, Иван Лапин, Алексей Марков, Ирина Горбачева, Нодари Джанелидзе, Алексей Митин, Юрий Уткин, Сергей Гарусов...

Описание:
Во время празднования дня Победы герои понимают, что тематическая военная вечеринка сменилась реальностью фашистского тыла. Пятеро парней, известных зрителям по первой части фильма, оказываются в немецкой пивной. В суматохе боя им удается бежать, однако в неразберихе «пришельцы из 21 века» случайно ранят красноармейца по фамилии Кантария. Друзья понимают, что если тот не выживет, то изменится ход истории — кто же будет водружать флаг на Рейхстаг? Теперь их задача — добраться до своих, не дать погибнуть будущему герою войны и, конечно, вернуться обратно в свое время…




Исходник: DVD5 R5
Тип релиза: DVDRip
Контейнер: AVI
Видео: 720x400 (1,800:1), 25 fps, XviD ~ 1 887 kbps avg, 0.262 bit/pixel
Аудио: 48 kHz, Dolby AC3 2.0, 224 kbps

Раздача от:

Общее
Полное имя: Tuman.2.2012.DVDRip_[Youtracker]_by_AVP Studio.avi
Формат: AVI
Формат/Информация: Audio Video Interleave
Профиль формата: OpenDML
Размер файла: 2,19 Гбайт
Продолжительность: 2 ч. 27 м.
Общий поток: 2123 Кбит/сек
Программа кодирования: VirtualDubModRus 1.5.10.2 (build 2542/release)
Библиотека кодирования: VirtualDubMod build 2542/release

Видео
Идентификатор: 0
Формат: MPEG-4 Visual
Профиль формата: Advanced Simple@L5
Параметр BVOP формата: 1
Параметр QPel формата: Нет
Параметр GMC формата: Без точки перехода
Параметр матрицы формата: Выборочная
Идентификатор кодека: XVID
Идентификатор кодека/Подсказка: XviD
Продолжительность: 2 ч. 27 м.
Битрейт: 1887 Кбит/сек
Ширина: 720 пикселей
Высота: 400 пикселей
Соотношение сторон: 16:9
Частота кадров: 25,000 кадров/сек
Цветовое пространство: YUV
Субдискретизация насыщенности: 4:2:0
Битовая глубина: 8 бит
Тип развёртки: Прогрессивная
Метод сжатия: С потерями
Бит/(Пиксели*Кадры): 0.262
Размер потока: 1,95 Гбайт (89%)
Библиотека кодирования: XviD 65

Аудио
Идентификатор: 1
Формат: AC-3
Формат/Информация: Audio Coding 3
Расширение режима: CM (complete main)
Идентификатор кодека: 2000
Продолжительность: 2 ч. 27 м.
Вид битрейта: Постоянный
Битрейт: 224 Кбит/сек
Каналы: 2 канала
Расположение каналов: Front: L R
Частота: 48,0 КГц
Битовая глубина: 16 бит
Метод сжатия: С потерями
Размер потока: 237 Мбайт (11%)
Выравнивание: Разделение по промежуткам
Продолжительность промежутка: 40мс. (1,00 видеокадр)
Время предзагрузки промежутка: 500мс







реклама партнёра


Вернуться к началу
 Профиль Отправить личное сообщение  
 
   Похожие торренты   Автор   Торрент   Размер 
В этой теме нет новых непрочитанных сообщений. Морской туман / Haemoo (Шим Сон Бо) [Драма, 2014] HDTVRip, dvo

Dracon

24 | 3

1.37 ГБ

В этой теме нет новых непрочитанных сообщений. Морской туман  / Haemoo (Шим Сон Бо) [Драма, 2014] HDTVRip 720p, dvo

Dracon

1 | 3

4.1 ГБ

В этой теме нет новых непрочитанных сообщений. Мистер пип / Mr. Pip [драма, военный, 2012] HDRip, mvo+sub

Dracon

196 | 4

1.53 ГБ

В этой теме нет новых непрочитанных сообщений. Военный робот / Robowar - Robot da guerra [Фантастика, боевик, приключения, 1988] DVDRip, Avo+Sub

salma3

36 | 5

1.45 ГБ

В этой теме нет новых непрочитанных сообщений. Император / Emperor [драма, военный, история, 2012] HDRip, Mvo

Dracon

737 | 12

1.36 ГБ

В этой теме нет новых непрочитанных сообщений. Бомбежка / Het Bombardement [драма, военный, история, 2012] BDRip 720p, Dvo [НТВ+]

salma3

4 | 2

4.51 ГБ

В этой теме нет новых непрочитанных сообщений. Император / Emperor [драма, военный, история, 2012] BDRip 1080p, Mvo

Dracon

27 | 4

10.65 ГБ


Начать новую тему Ответить на тему  [ 1 сообщение ] 




Для Мосгорсуда, Роскомнадзора и рекламодателей:: mosgorsud-torrent[собачка]yandex.ru