Торрент файл
скачать торрент магнет ссылка Добавлен: 29 мар 2013, 01:45
Размер: 2.18 ГБ
Сидеров: 486
Личеров: 19
Автор

СообщениеДобавлено: 29 мар 2013, 01:45 

Не в сети
5 Звёзд
Аватара пользователя
Дата регистрации:
20 апр 2012, 10:59
Возраст: 35
Спасибо: 941 / 102
Сообщения: 1292
Откуда: Москва

«Секс на вылет»

Русское название: Что творят мужчины!
Год выпуска: 2013
Производство: Россия / Enjoy Movies
Жанр:Комедия
Перевод: Не требуется [Русский]
Субтитры: Отсутствуют

Дата мировой премьеры: 28 февраля 2013
Дата российской премьеры: 28 февраля 2013, «Каропрокат»
Дата выхода DVD релиза: 25 марта 2013, «Новый Диск»
Дата выхода Blu-Ray релиза: 25 марта 2013, «Новый Диск»

Режиссер: Сарик Андреасян
Актеры: Таир Мамедов, Константин Крюков, Роман Юнусов, Гавриил Гордеев, Равшана Куркова, Анна Хилькевич, Кристина Асмус, Наталия Медведева, Екатерина Скулкина, Даша Астафьева

Описание фильма:
Неприступные женщины, полмиллиона долларов и четверо героев которым предстоит принять участие в игре «Секс-лото», организованное экстравагантным миллионером. Суть игры — за пять дней соблазнить как можно больше женщин на морском курорте. Получив задания, великолепная четверка бросается в бой.

Но все цели совсем не простые — бабушка, жена олигарха, девственница, феминистка, сектантка — и приз получит только лучший. Каждый применит свой фирменный арсенал, и все будут близки к тому, чтобы получить заветный куш, записав новых жертв в список своих мужских побед. Но неожиданно в «дело секса» вмешается любовь.



Продолжительность: 01:26:36
Качество видео: BDRip
Автор рипа: MysTeRy

Видеокодек: MPEG-4 AVC/H.264
Битрейт видео: ~3152 Кбит/сек
Размер кадра: 1280 x 578
Аудиокодек: AC3 5.1
Битрейт аудио: 448 Кбит/сек



Общее
Уникальный идентификатор: 212016922345969534350696470737426781139 (0x9F80F9548B52C7DF9F2D69E4E23F13D3)
Полное имя: H:Chto.tvorjat.muzhchiny.2013.O.x264.BDRip-MysTeRy.mkv
Формат: Matroska
Версия формата: Version 4 / Version 2
Размер файла: 2,18 Гбайт
Продолжительность: 1 ч. 26 м.
Общий поток: 3598 Кбит/сек
Название фильма: Chto.tvorjat.muzhchiny.2013.O.x264.BDRip-MysTeRy
Дата кодирования: UTC 2013-03-23 17:22:17
Программа кодирования: mkvmerge v6.1.0 ('Old Devil') built on Mar2 2013 14:32:37
Библиотека кодирования: libebml v1.3.0 + libmatroska v1.4.0

Видео
Идентификатор: 1
Формат: AVC
Формат/Информация: Advanced Video Codec
Профиль формата: High@L4.1
Параметр CABAC формата: Да
Параметр ReFrames формата: 9 кадров
Идентификатор кодека: V_MPEG4/ISO/AVC
Продолжительность: 1 ч. 26 м.
Битрейт: 3152 Кбит/сек
Ширина: 1280 пикселей
Высота: 578 пикселей
Соотношение сторон: 2,2:1
Частота кадров: 24,000 кадра/сек
Цветовое пространство: YUV
Субдискретизация насыщенности: 4:2:0
Битовая глубина: 8 бит
Тип развёртки: Прогрессивная
Бит/(Пиксели*Кадры): 0.178
Размер потока: 1,86 Гбайт (86%)
Заголовок: ENCODER........: MysTeRy
Библиотека кодирования: x264 core 130 r2273 b3065e6
Настройки программы: cabac=1 / ref=9 / deblock=1:-3:-3 / analyse=0x3:0x133 / me=umh / subme=10 / psy=1 / psy_rd=1.00:0.00 / mixed_ref=1 / me_range=32 / chroma_me=1 / trellis=2 / 8x8dct=1 / cqm=0 / deadzone=21,11 / fast_pskip=0 / chroma_qp_offset=-2 / threads=12 / lookahead_threads=2 / sliced_threads=0 / nr=0 / decimate=0 / interlaced=0 / bluray_compat=0 / constrained_intra=0 / bframes=8 / b_pyramid=2 / b_adapt=2 / b_bias=0 / direct=3 / weightb=1 / open_gop=0 / weightp=2 / keyint=250 / keyint_min=23 / scenecut=40 / intra_refresh=0 / rc_lookahead=60 / rc=2pass / mbtree=0 / bitrate=3152 / ratetol=1.0 / qcomp=0.70 / qpmin=0 / qpmax=69 / qpstep=4 / cplxblur=20.0 / qblur=0.5 / vbv_maxrate=50000 / vbv_bufsize=61400 / nal_hrd=none / ip_ratio=1.40 / pb_ratio=1.30 / aq=2:0.80
Язык: Russian
Default: Да
Forced: Нет
Основные цвета: BT.709-5, BT.1361, IEC 61966-2-4, SMPTE RP177
Характеристики трансфера: BT.709-5, BT.1361
Коэффициенты матрицы: BT.709-5, BT.1361, IEC 61966-2-4 709, SMPTE RP177

Аудио
Идентификатор: 2
Формат: AC-3
Формат/Информация: Audio Coding 3
Расширение режима: CM (complete main)
Идентификатор кодека: A_AC3
Продолжительность: 1 ч. 26 м.
Вид битрейта: Постоянный
Битрейт: 448 Кбит/сек
Каналы: 6 каналов
Расположение каналов: Front: L C R, Side: L R, LFE
Частота: 48,0 КГц
Битовая глубина: 16 бит
Метод сжатия: С потерями
Размер потока: 278 Мбайт (12%)
Заголовок: Original
Язык: Russian
Default: Да
Forced: Нет

Меню
00:00:00.000: ru:Chapter 01
00:05:04.333: ru:Chapter 02
00:10:08.833: ru:Chapter 03
00:16:56.625: ru:Chapter 04
00:23:02.833: ru:Chapter 05
00:32:08.583: ru:Chapter 06
00:38:21.125: ru:Chapter 07
00:45:30.750: ru:Chapter 08
00:55:24.916: ru:Chapter 09
01:03:07.750: ru:Chapter 10
01:08:40.000: ru:Chapter 11
01:15:34.583: ru:Chapter 12

x264 [info]: frame I:1533Avg QP:14.64size: 91427
x264 [info]: frame P:32336 Avg QP:18.27size: 31207
x264 [info]: frame B:90845 Avg QP:20.51size:9860











реклама партнёра


Вернуться к началу
 Профиль Отправить личное сообщение  
 
   Похожие торренты   Автор   Торрент   Размер 
В этой теме нет новых непрочитанных сообщений. Что творят мужчины! 2 [Комедия, 2015] DVDRip-AVC [Лицензия]

salma3

24 | 9

1.46 ГБ

В этой теме нет новых непрочитанных сообщений. Что творят мужчины! 2 (Сарик Андреасян) [2015, Комедия, DVDRip | Лицензия]

marya111

224 | 12

1.37 ГБ

В этой теме нет новых непрочитанных сообщений. Что творят мужчины! 2 (Сарик Андреасян) [Комедия, 2015] WEB-DL 720p

Dracon

11 | 4

2.63 ГБ

В этой теме нет новых непрочитанных сообщений. Что творят мужчины! 2 (Сарик Андреасян) [Комедия, 2015] WEB-DL 1080p

Dracon

86 | 6

3.07 ГБ

В этой теме нет новых непрочитанных сообщений. Что творят мужчины! 2 (Сарик Андреасян) [Комедия, 2015] Web-DLRip

Dracon

277 | 12

1.37 ГБ

В этой теме нет новых непрочитанных сообщений. Мужчины, женщины и дети / Men, Women & Children (Джейсон Рейтмен) [драма, комедия, 2014] BDRip 720p, Dub+Sub [Лицензия]

Dracon

29 | 2

7.67 ГБ

В этой теме нет новых непрочитанных сообщений. Мужчины, женщины и дети / Men, Women & Children (Джейсон Рейтмен) [драма, комедия, 2014] BDRip-AVC, Dub+Sub [Лицензия]

Dracon

195 | 6

2.18 ГБ


Начать новую тему Ответить на тему  [ 1 сообщение ] 




Для Мосгорсуда, Роскомнадзора и рекламодателей:: mosgorsud-torrent[собачка]yandex.ru