Торрент файл
скачать торрент магнет ссылка Добавлен: 08 мар 2013, 13:29
Размер: 1.46 ГБ
Сидеров: 0
Личеров: 1
Автор

СообщениеДобавлено: 08 мар 2013, 13:30 

Не в сети
Зам. Админа
Аватара пользователя
Дата регистрации:
02 дек 2010, 12:39
Спасибо: 12460 / 214
Сообщения: 27968

Год выпуска: 2012
Жанр:Триллер, драма
Выпущено: Россия, Профит
Режиссер: Антон Мегердичев

Продолжительность: 02:11:44
Язык: Русский

В ролях: Сергей Пускепалис, Анатолий Белый, Анфиса Вистингаузен, Алексей Бардуков, Катерина Шпица, Елена Панова, Станислав Дужников, Светлана Ходченкова, Сергей Сосновский, Ярослав Жалнин, Александр Яковлев, Владимир Стержаков, Александр Фисенко, Иван Макаревич, Максим Линников, Иван Лапин, Олег Заболотный, Кирилл Плетнев, Дмитрий Орлов, Анатолий Котенев, Дмитрий Высоцкий, Александр Журман, Екатерина Директоренко, Александр Армер, Александр Вдовин, Денис Парамонов, Елена Гольянова, Николай Рябков, Михаил Фатеев, Елена Катышева, Ксения Березина, Сергей Коваленко, Вячеслав Иванов, Алексей Овсянников, Александр Тараньжин, Лилия Кондрова, Владимир Юматов, Иван Лешук, Алексей Фатеев, Алексей Нестеров, Константин Овсянников

О фильме: Широко развернувшееся в центре Москвы строительство новых зданий приводит к тому, что в одном из тоннелей метро между двумя станциями возникает трещина. Никто себе и представить не мог, что в результате нарушения герметичности перекрытия в тоннель хлынет вода из Москва-реки, и сотни пассажиров поезда окажутся во власти надвигающегося потопа. Бешеный поток воды грозит не только обрушением тоннелей метро, но и разрушением всего города. Среди попавших в беду людей — врач городской больницы Андрей Гарин и его дочь Ксюша. Гарин сражается с катастрофой, пытаясь спасти оставшихся в живых пассажиров, в том числе и …любовника своей жены. Гарину придется побороть обиду, гнев и страх. Он должен выжить, чтобы вернуть свою любовь, семью… свою прежнюю счастливую жизнь.



Формат:MKV
Качество:HDRip-AVC
Видео: MPEG4 Video (H264) 720x304 (715:304) 23.976fps
Аудио: Dolby AC3 48000Hz 6ch 4608kbps

Семпл
General
Unique ID : 333508906799561368864815148933840959717 (0xFAE77AA1DFEFCA2A227249EC5120F8E5)

Format : Matroska
Format version : Version 2
File size : 1.46 GiB
Duration : 2h 11mn
Overall bit rate : 1 591 Kbps

Video
ID : 1
Format : AVC
Format/Info : Advanced Video Codec
Format profile : High@L4.1
Format settings, CABAC : Yes
Format settings, ReFrames : 3 frames
Codec ID : V_MPEG4/ISO/AVC
Duration : 2h 11mn
Bit rate : 1 225 Kbps
Width : 720 pixels
Height : 304 pixels
Display aspect ratio : 2.35:1
Original display aspect ratio : 2.35:1
Frame rate mode : Variable
Frame rate : 23.976 fps
Color space : YUV
Chroma subsampling : 4:2:0
Bit depth : 8 bits
Scan type : Progressive
Bits/(Pixel*Frame) : 0.233
Stream size : 1.08 GiB (74%)
Writing library : x264 core 116 r2019M 9cc407d
Encoding settings : cabac=1 / ref=3 / deblock=1:-1:-1 / analyse=0x3:0x133 / me=hex / subme=7 / psy=1 / psy_rd=1.00:0.15 / mixed_ref=1 / me_range=16 / chroma_me=1 / trellis=1 / 8x8dct=1 / cqm=0 / deadzone=21,11 / fast_pskip=1 / chroma_qp_offset=-3 / threads=8 / sliced_threads=0 / nr=0 / decimate=1 / interlaced=0 / bluray_compat=0 / constrained_intra=0 / bframes=3 / b_pyramid=1 / b_adapt=2 / b_bias=0 / direct=3 / weightb=1 / open_gop=0 / weightp=2 / keyint=230 / keyint_min=23 / scenecut=40 / intra_refresh=0 / rc_lookahead=40 / rc=abr / mbtree=1 / bitrate=1225 / ratetol=1.0 / qcomp=0.60 / qpmin=10 / qpmax=51 / qpstep=4 / ip_ratio=1.40 / aq=1:1.00
Language : Russian
Default : Yes
Forced : No

Audio
ID : 2
Format : AC-3
Format/Info : Audio Coding 3
Mode extension : CM (complete main)
Codec ID : A_AC3
Duration : 2h 11mn
Bit rate mode : Constant
Bit rate : 384 Kbps
Channel(s) : 6 channels
Channel positions : Front: L C R, Side: L R, LFE
Sampling rate : 48.0 KHz
Bit depth : 16 bits
Compression mode : Lossy
Stream size : 362 MiB (24%)
Language : Russian
Default : Yes
Forced : No





реклама партнёра


Вернуться к началу
 Профиль  
 
   Похожие торренты   Автор   Торрент   Размер 
В этой теме нет новых непрочитанных сообщений. Дракула / Dracula [ужасы, триллер, мелодрама, 2012] HDRip, Mvo [Лицензия]

salma3

288 | 20

1.46 ГБ

В этой теме нет новых непрочитанных сообщений. Смерть со спецэффектами / Freaky Deaky [триллер, криминал, комедия, 2012] HDRip, Mvo [Лицензия]

Dracon

118 | 4

1.46 ГБ

В этой теме нет новых непрочитанных сообщений. Каньоны / The Canyons [триллер, драма, 2013] HDRip, Dub [Лицензия]

Dracon

77 | 2

1.46 ГБ

В этой теме нет новых непрочитанных сообщений. Семейка вампиров / Die Vampirschwestern [фэнтези, драма, комедия, приключения, семейный, 2012] HDRip, Dub [Лицензия]

Dracon

211 | 8

1.46 ГБ

В этой теме нет новых непрочитанных сообщений. Исчезнувшая / Gone Girl [триллер, драма, детектив, 2014] HDRip, Dub [лицензия]

Dracon

73 | 2

2.05 ГБ

В этой теме нет новых непрочитанных сообщений. Дрейф / Adrift [ужасы, триллер, драма, 2006] HDRip, Dub [Лицензия]

salma3

67 | 5

1.45 ГБ

В этой теме нет новых непрочитанных сообщений. Хулиган / Hellion (Кэт Кэндлер) [Триллер, драма, 2014] HDRip, Dub [Лицензия]

Dracon

35 | 1

1.46 ГБ


Начать новую тему Ответить на тему  [ 1 сообщение ] 




Для Мосгорсуда, Роскомнадзора и рекламодателей:: mosgorsud-torrent[собачка]yandex.ru