Торрент файл
скачать торрент магнет ссылка Добавлен: 01 фев 2013, 13:32
Размер: 1.46 ГБ
Сидеров: 0
Личеров: 1
Автор

СообщениеДобавлено: 01 фев 2013, 13:32 

Не в сети
Зам. Админа
Аватара пользователя
Дата регистрации:
02 дек 2010, 12:39
Спасибо: 12461 / 214
Сообщения: 27968

Год выхода: 2013
Жанр: Комедия
Режиссер: Евгений Абызов
В ролях: Александр Ревва, Кристина Асмус, Дмитрий Хрусталев, Людмила Артемьева, Татьяна Орлова, Ксения Буравская, Варвара Малкова, Александра Кимаева, Евгений Шиманович, Алексей Рязанцев

О фильме:
Главный герой нашей истории - успешный актер, звезда шоу-бизнеса Игорь Успенский. Его жизнь - сплошные съемки, концерты, презентации, корпоративы, интервью и светские тусовки. Он вынужден «крутиться» день и ночь, у него нет выходных и праздников. А его очаровательная жена и прекрасная дочка видят его в лучшем случае поздно ночью, когда он приезжает домой, чтобы поспать хотя бы пару часов. Но все труды не проходят даром. Игорь очень популярен и однажды его кандидатуру выдвигают на премию «Человек года» - теперь ему нужно еще больше времени, чтобы победить главного конкурента - певца Михаила Стасова, главные хиты которого свели с ума всех женщин России...



Страна: Россия
Студия: Enjoy Movies
Продолжительность: 01:23:34
Перевод: Не требуется [Лицензия]
релиз от:
Формат: MKV
Качество: HDRip-AVC
Видео: MPEG4 Video (H264) 720x328 24fps
Аудио: Dolby AC3 48000Hz 6ch 384kbps


Семпл

General
Unique ID : 41713101763672049878786048353072033103 (0x1F61A6B378490677D64284FB0ABBAD4F)
Format : Matroska
Format version : Version 2
File size : 1.46 GiB
Duration : 1h 23mn
Overall bit rate : 2 502 Kbps
Writing application : XviD4PSP 6.0 / 53.6.0
Writing library : XviD4PSP 6.0 / 53.6.0

Video
ID : 1
Format : AVC
Format/Info : Advanced Video Codec
Format profile : High@L4.1
Format settings, CABAC : Yes
Format settings, ReFrames : 3 frames
Codec ID : V_MPEG4/ISO/AVC
Duration : 1h 23mn
Bit rate : 2 156 Kbps
Width : 720 pixels
Height : 328 pixels
Display aspect ratio : 2.2:1
Frame rate mode : Variable
Frame rate : 24.000 fps
Color space : YUV
Chroma subsampling : 4:2:0
Bit depth : 8 bits
Scan type : Progressive
Bits/(Pixel*Frame) : 0.380
Stream size : 1.21 GiB (83%)
Writing library : x264 core 116 r2019M 9cc407d
Encoding settings : cabac=1 / ref=3 / deblock=1:-1:-1 / analyse=0x3:0x133 / me=hex / subme=7 / psy=1 / psy_rd=1.00:0.15 / mixed_ref=1 / me_range=16 / chroma_me=1 / trellis=1 / 8x8dct=1 / cqm=0 / deadzone=21,11 / fast_pskip=1 / chroma_qp_offset=-3 / threads=8 / sliced_threads=0 / nr=0 / decimate=1 / interlaced=0 / bluray_compat=0 / constrained_intra=0 / bframes=3 / b_pyramid=1 / b_adapt=2 / b_bias=0 / direct=3 / weightb=1 / open_gop=0 / weightp=2 / keyint=240 / keyint_min=24 / scenecut=40 / intra_refresh=0 / rc_lookahead=40 / rc=abr / mbtree=1 / bitrate=2156 / ratetol=1.0 / qcomp=0.60 / qpmin=10 / qpmax=51 / qpstep=4 / ip_ratio=1.40 / aq=1:1.00
Language : Russian
Default : Yes
Forced : No

Audio
ID : 2
Format : AC-3
Format/Info : Audio Coding 3
Mode extension : CM (complete main)
Codec ID : A_AC3
Duration : 1h 23mn
Bit rate mode : Constant
Bit rate : 384 Kbps
Channel(s) : 6 channels
Channel positions : Front: L C R, Side: L R, LFE
Sampling rate : 48.0 KHz
Bit depth : 16 bits
Compression mode : Lossy
Stream size : 230 MiB (15%)
Language : Russian
Default : Yes
Forced : No





реклама партнёра


Вернуться к началу
 Профиль  
 
   Похожие торренты   Автор   Торрент   Размер 
В этой теме нет новых непрочитанных сообщений. Дублер / La Doublure [комедия, мелодрама, 2006] HDRip, Dub

salma3

3 | 2

1.36 ГБ

В этой теме нет новых непрочитанных сообщений. Всё включено 2 [комедия, 2013] HDRip [Лицензия]

Dracon

2882 | 262

1.46 ГБ

В этой теме нет новых непрочитанных сообщений. Друзья друзей [Комедия, 2013] HDRip [Лицензия]

Dracon

598 | 17

1.37 ГБ

В этой теме нет новых непрочитанных сообщений. За кадром... / In a World... [Комедия, 2013] HDRip, Mvo [лицензия]

Dracon

53 | 4

1.37 ГБ

В этой теме нет новых непрочитанных сообщений. Уик-энд в Париже / Le Week-End [мелодрама, комедия, 2013] HDRip, Mvo [лицензия]

Dracon

195 | 9

1.46 ГБ

В этой теме нет новых непрочитанных сообщений. Соблазнитель 2 / Kokowaah 2 [Комедия, семейный, 2013] HDRip, Dub [Лицензия]

salma3

524 | 18

1.46 ГБ

В этой теме нет новых непрочитанных сообщений. Остинленд / Austenland [мелодрама, комедия, 2013] HDRip, Mvo [Лицензия]

salma3

104 | 2

1.46 ГБ


Начать новую тему Ответить на тему  [ 1 сообщение ] 




Для Мосгорсуда, Роскомнадзора и рекламодателей:: mosgorsud-torrent[собачка]yandex.ru