Торрент файл
скачать торрент магнет ссылка Добавлен: 30 янв 2013, 11:36
Размер: 1.38 ГБ
Сидеров: 0
Личеров: 1
Автор

СообщениеДобавлено: 30 янв 2013, 11:36 

Не в сети
Зам. Админа
Аватара пользователя
Дата регистрации:
02 дек 2010, 12:39
Спасибо: 12460 / 214
Сообщения: 27968

Год выхода: 2012
Жанр:мелодрама, комедия, приключения
Режиссер: Александр Войтинский
В ролях: Сергей Светлаков, Вера Брежнева, Александр Макогон, Александр Половцев, Марина Дюжева, Михаил Ефремов, Ирина Медведева, Ампорн Панкраток, Соонтри Кхумжулла, Сомсак Падуга

- О фильме:
У Сергея и Марины в семейной жизни наступил кризис. Во время одной из ссор, они решают поехать в экзотическое путешествие. Всю дорогу между супругами не утихают ссоры, которые в конце концов приводят к тому, что они оказываются на необитаемом острове, затерянном в океане. Вместо того чтобы вместе бороться за выживание, наши герои продолжают выяснять отношения, постепенно переходя к настоящим боевым действиям. В довершение несчастий оказывается, что остров населен племенем воинствующих туземцев.

Продолжительность: 01:23:30
Перевод: Оригинал (не требуется)
Субтитры: нет
Выпущено: Россия
релиз от:
Формат: MKV
Качество: HDRip-AVC
Видео: MPEG4 Video (H264) 720x304 (715:304) 23.976fps
Аудио: Dolby AC3 48000Hz 6ch 384kbps

Семпл

General
Unique ID : 134032687773439452364678983202266485183 (0x64D5C1B67FA2596702C69318773D11BF)
Complete name : D:\torrent\Джунгли (2012)..mkv
Format : Matroska
Format version : Version 2
File size : 1.38 GiB
Duration : 1h 23mn
Overall bit rate : 2 361 Kbps
Movie name : Джунгли / Dzhungli (2012).BDRip.720p.Rus
Writing application : XviD4PSP 6.0 / 53.6.0
Writing library : XviD4PSP 6.0 / 53.6.0

Video
ID : 1
Format : AVC
Format/Info : Advanced Video Codec
Format profile : High@L4.1
Format settings, CABAC : Yes
Format settings, ReFrames : 3 frames
Codec ID : V_MPEG4/ISO/AVC
Duration : 1h 23mn
Bit rate : 1 930 Kbps
Nominal bit rate : 2 043 Kbps
Width : 720 pixels
Height : 304 pixels
Display aspect ratio : 2.35:1
Original display aspect ratio : 2.35:1
Frame rate mode : Variable
Frame rate : 23.976 fps
Color space : YUV
Chroma subsampling : 4:2:0
Bit depth : 8 bits
Scan type : Progressive
Bits/(Pixel*Frame) : 0.368
Stream size : 1.13 GiB (82%)
Title : - Rip by kozak -
Writing library : x264 core 116 r2019M 9cc407d
Encoding settings : cabac=1 / ref=3 / deblock=1:-1:-1 / analyse=0x3:0x133 / me=hex / subme=7 / psy=1 / psy_rd=1.00:0.15 / mixed_ref=1 / me_range=16 / chroma_me=1 / trellis=1 / 8x8dct=1 / cqm=0 / deadzone=21,11 / fast_pskip=1 / chroma_qp_offset=-3 / threads=8 / sliced_threads=0 / nr=0 / decimate=1 / interlaced=0 / bluray_compat=0 / constrained_intra=0 / bframes=3 / b_pyramid=1 / b_adapt=2 / b_bias=0 / direct=3 / weightb=1 / open_gop=0 / weightp=2 / keyint=230 / keyint_min=23 / scenecut=40 / intra_refresh=0 / rc_lookahead=40 / rc=abr / mbtree=1 / bitrate=2043 / ratetol=1.0 / qcomp=0.60 / qpmin=10 / qpmax=51 / qpstep=4 / ip_ratio=1.40 / aq=1:1.00
Language : English
Default : Yes
Forced : No

Audio
ID : 2
Format : AC-3
Format/Info : Audio Coding 3
Mode extension : CM (complete main)
Codec ID : A_AC3
Duration : 1h 23mn
Bit rate mode : Constant
Bit rate : 384 Kbps
Channel(s) : 6 channels
Channel positions : Front: L C R, Side: L R, LFE
Sampling rate : 48.0 KHz
Bit depth : 16 bits
Compression mode : Lossy
Stream size : 229 MiB (16%)
Title : Оригинал
Language : Russian
Default : Yes
Forced : No





реклама партнёра


Вернуться к началу
 Профиль  
 
   Похожие торренты   Автор   Торрент   Размер 
В этой теме нет новых непрочитанных сообщений. Добро пожаловать в джунгли / Welcome to the Jungle [боевик, комедия 2013] HDRip, Dvo

Dracon

799 | 16

1.37 ГБ

В этой теме нет новых непрочитанных сообщений. Конг: Возвращение в джунгли / Kong: Return To The Jungle [Мультфильм, приключения, семейный, 2006] DVDRip-AVC, Dub [Лицензия]

salma3

2 | 4

1.37 ГБ

В этой теме нет новых непрочитанных сообщений. Кристал Фэйри и волшебный кактус и 2012 / Crystal Fairy & Magical Cactus and 2012 (Себастьян Сильва) [комедия, приключения, 2013] HDRip, mvo

Dracon

142 | 6

1.51 ГБ

В этой теме нет новых непрочитанных сообщений. Добро пожаловать в джунгли / Welcome to the Jungle [комедия, 2013] BDRip 1080p, Dvo

salma3

81 | 6

7.44 ГБ

В этой теме нет новых непрочитанных сообщений. Добро пожаловать в джунгли / Welcome to the Jungle [комедия, 2013] BDRip 720p, Dvo

Dracon

163 | 6

4.67 ГБ

В этой теме нет новых непрочитанных сообщений. Человек из Рио / L'Homme de Rio [комедия, мелодрама, приключения, боевик, 1964] HDRip, Dub

salma3

32 | 5

1.46 ГБ

В этой теме нет новых непрочитанных сообщений. Ранние и короткие годы Сабины Ривас / La vida precoz y breve de Sabina Rivas [драма, мелодрама, приключения, 2012] HDRip, Mvo [НТВ+]

salma3

191 | 6

1.46 ГБ


Начать новую тему Ответить на тему  [ 1 сообщение ] 




Для Мосгорсуда, Роскомнадзора и рекламодателей:: mosgorsud-torrent[собачка]yandex.ru