Торрент файл
скачать торрент магнет ссылка Добавлен: 25 янв 2013, 13:12
Размер: 1.43 ГБ
Сидеров: 1
Личеров: 3
Автор

СообщениеДобавлено: 25 янв 2013, 13:12 

Не в сети
Зам. Админа
Аватара пользователя
Дата регистрации:
02 дек 2010, 12:39
Спасибо: 12461 / 214
Сообщения: 27968

Год выхода в прокат: 2012
Жанр:комедия, семейный
Режиссер: Сарик Андреасян, Артем Аксененко, Дмитрий Грачев
В ролях: Елизавета Боярская, Максим Матвеев, Павел Воля, Ирина Розанова, Ален Делон, Екатерина Вилкова, Светлана Иванова, Максим Виторган, Константин Крюков, Гарик Харламов

О фильме: В новой ленте зрители увидят новые истории и новые приключения новых героев, объединенных одним чувством — любовью к МАМЕ.

5 новелл. Смешные и трогательные, лиричные и комичные — каждая новелла расскажет историю мамы и ребенка, двух самых близких людей на свете. Ведь что бы ни происходило, мама всегда остается тем человеком, который будет любить всегда и несмотря ни на что…



Выпущено: Россия, Enjoy Movies
Продолжительность: 01:21:02
Озвучивание: Оригинальное [лицензия]
релиз от:
Формат: MKV
Качество: HDRip-AVC
Видео: MPEG4 Video (H264) 720x304 (715:304) 24fps
Аудио: Dolby AC3 48000Hz 6ch 384kbps

Семпл

General
Unique ID : 210312782759305384294524168758042289573 (0x9E38C4C2FE2E10D313494065A74FE5A5)
Complete name : D:\torrent\S.novym.godom.mamy.2012.mkv
Format : Matroska
Format version : Version 2
File size : 1.43 GiB
Duration : 1h 24mn
Overall bit rate : 2 435 Kbps
Movie name : IRONCLUB
Writing application : XviD4PSP 6.0 / 53.6.0
Writing library : XviD4PSP 6.0 / 53.6.0

Video
ID : 1
Format : AVC
Format/Info : Advanced Video Codec
Format profile : High@L4.1
Format settings, CABAC : Yes
Format settings, ReFrames : 3 frames
Codec ID : V_MPEG4/ISO/AVC
Duration : 1h 24mn
Bit rate : 1 986 Kbps
Width : 720 pixels
Height : 304 pixels
Display aspect ratio : 2.35:1
Original display aspect ratio : 2.35:1
Frame rate mode : Variable
Frame rate : 24.000 fps
Color space : YUV
Chroma subsampling : 4:2:0
Bit depth : 8 bits
Scan type : Progressive
Bits/(Pixel*Frame) : 0.378
Stream size : 1.18 GiB (82%)
Title : S novym godom mamy 720p BluRay DTS x264-IRONCLUB
Writing library : x264 core 116 r2019M 9cc407d
Encoding settings : cabac=1 / ref=3 / deblock=1:-1:-1 / analyse=0x3:0x133 / me=hex / subme=7 / psy=1 / psy_rd=1.00:0.15 / mixed_ref=1 / me_range=16 / chroma_me=1 / trellis=1 / 8x8dct=1 / cqm=0 / deadzone=21,11 / fast_pskip=1 / chroma_qp_offset=-3 / threads=8 / sliced_threads=0 / nr=0 / decimate=1 / interlaced=0 / bluray_compat=0 / constrained_intra=0 / bframes=3 / b_pyramid=1 / b_adapt=2 / b_bias=0 / direct=3 / weightb=1 / open_gop=0 / weightp=2 / keyint=240 / keyint_min=24 / scenecut=40 / intra_refresh=0 / rc_lookahead=40 / rc=abr / mbtree=1 / bitrate=1986 / ratetol=1.0 / qcomp=0.60 / qpmin=10 / qpmax=51 / qpstep=4 / ip_ratio=1.40 / aq=1:1.00
Language : Russian
Default : Yes
Forced : No

Audio
ID : 2
Format : AC-3
Format/Info : Audio Coding 3
Mode extension : CM (complete main)
Codec ID : A_AC3
Duration : 1h 24mn
Bit rate mode : Constant
Bit rate : 384 Kbps
Channel(s) : 6 channels
Channel positions : Front: L C R, Side: L R, LFE
Sampling rate : 48.0 KHz
Bit depth : 16 bits
Compression mode : Lossy
Stream size : 232 MiB (16%)
Title : DTS 5.1 @ 1536
Language : Russian
Default : Yes
Forced : No





реклама партнёра


Вернуться к началу
 Профиль  
 
   Похожие торренты   Автор   Торрент   Размер 
В этой теме нет новых непрочитанных сообщений. Мамы 3 (Георгий Малков, Эмиль Никогосян) [Комедия, Семейный, 2014] HDRip

Dracon

510 | 14

1.37 ГБ

В этой теме нет новых непрочитанных сообщений. Дневник мамы первоклассника [детский, мелодрама, семейный, 2014] DVD5 [Лицензия]

Dracon

153 | 15

4.09 ГБ

В этой теме нет новых непрочитанных сообщений. Семейка вампиров / Die Vampirschwestern [фэнтези, драма, комедия, приключения, семейный, 2012] HDRip, Dub [Лицензия]

Dracon

211 | 8

1.46 ГБ

В этой теме нет новых непрочитанных сообщений. Мамы 3 (Георгий Малков, Эмиль Никогосян) [Комедия, Семейный, 2014] DVB

Dracon

1493 | 170

3.15 ГБ

В этой теме нет новых непрочитанных сообщений. Мамы 3 (Георгий Малков, Эмиль Никогосян ) [Комедия, Семейный, 2014] Blu-ray RUS 1080p

Dracon

5 | 6

16.84 ГБ

В этой теме нет новых непрочитанных сообщений. Мамы 3 (Георгий Малков, Эмиль Никогосян ) [Комедия, Семейный, 2014] WEBRip

Dracon

9 | 2

700.5 МБ

В этой теме нет новых непрочитанных сообщений. Мамы 3 (Георгий Малков, Эмиль Никогосян ) [Комедия, Семейный, 2014] BDRip 1080p

Dracon

16 | 5

7.53 ГБ


Начать новую тему Ответить на тему  [ 1 сообщение ] 




Для Мосгорсуда, Роскомнадзора и рекламодателей:: mosgorsud-torrent[собачка]yandex.ru