Торрент файл
скачать торрент магнет ссылка Добавлен: 22 янв 2013, 21:22
Размер: 1.45 ГБ
Сидеров: 188
Личеров: 10
Статус: (Dracon)
Автор

СообщениеДобавлено: 22 янв 2013, 21:22 

Не в сети
Зам. Админа
Аватара пользователя
Дата регистрации:
02 дек 2010, 12:39
Спасибо: 12461 / 214
Сообщения: 27968


«Из гламура в трэш за 6 дней»

Год выхода: 2012
Жанр: Мелодрама, Комедия
Режиссер: Соня Карпунина
В ролях: Соня Карпунина, Агния Кузнецова, Клим Шипенко, Константин Крюков, Александр Яценко, Артем Быстров, Любовь Толкалина, Михаил Бабичев, Александр Самойленко, Донатас Грудович

О фильме: Надя из Питера, учится в Лондоне. Родители создают возможность жить без особых забот и хлопот. Молодой человек Женя работает в Москве в крупной компании и подает большие надежды. Одно расстройство — из-за перспективной работы Женя переехал в Москву, а Надя осталась в Лондоне. 3000 километров — слишком далеко. И Надя решает сделать Жене сюрприз — приехать в гости без предупреждения. В итоге, сюрпризы ожидают не только Женю, но и Надю.

Выпущено: Россия / ВайТ Медиа
Продолжительность: 01:34:41
Перевод: Не требуется [Русский]
Автор рипа: MysTeRy

Кодек: MPEG-4 AVC/H.264
Качество: DVDRip-AVC
Видео: 1821 Кбит/сек, 720x432@1024x432
Звук: AC3, 384 Кбит/сек (6 ch)


Общее
Уникальный идентификатор: 201269631280810998371192407980989861764 (0x976B1EF8692F42FEABB36DBA7285CF84)
Полное имя: Vse.prosto.2012.O.x264.DVDRip-MysTeRy.mkv
Формат: Matroska
Версия формата: Version 4 / Version 2
Размер файла: 1,45 Гбайт
Продолжительность: 1 ч. 34 м.
Общий поток: 2198 Кбит/сек
Название фильма: Vse.prosto.2012.O.x264.DVDRip-MysTeRy
Дата кодирования: UTC 2013-01-22 16:29:21
Программа кодирования: mkvmerge v6.0.0 ('Coming Up For Air') built on Jan 20 2013 09:52:00
Библиотека кодирования: libebml v1.3.0 + libmatroska v1.4.0

Видео
Идентификатор: 1
Формат: AVC
Формат/Информация: Advanced Video Codec
Профиль формата: High@L4.1
Параметр CABAC формата: Да
Параметр ReFrames формата: 10 кадров
Идентификатор кодека: V_MPEG4/ISO/AVC
Продолжительность: 1 ч. 34 м.
Битрейт: 1821 Кбит/сек
Ширина: 720 пикселей
Высота: 432 пикселя
Соотношение сторон: 2,35:1
Частота кадров: 25,000 кадров/сек
Цветовое пространство: YUV
Субдискретизация насыщенности: 4:2:0
Битовая глубина: 8 бит
Тип развёртки: Прогрессивная
Бит/(Пиксели*Кадры): 0.234
Размер потока: 1,17 Гбайт (81%)
Заголовок: ENCODER........: MysTeRy
Библиотека кодирования: x264 core 125 r2208 d9d2288
Настройки программы: cabac=1 / ref=10 / deblock=1:-2:-1 / analyse=0x3:0x113 / me=umh / subme=10 / psy=1 / psy_rd=1.00:0.10 / mixed_ref=1 / me_range=32 / chroma_me=1 / trellis=2 / 8x8dct=1 / cqm=0 / deadzone=21,11 / fast_pskip=0 / chroma_qp_offset=-3 / threads=12 / lookahead_threads=2 / sliced_threads=0 / nr=0 / decimate=1 / interlaced=0 / bluray_compat=0 / constrained_intra=0 / bframes=6 / b_pyramid=2 / b_adapt=2 / b_bias=0 / direct=3 / weightb=1 / open_gop=0 / weightp=2 / keyint=250 / keyint_min=25 / scenecut=40 / intra_refresh=0 / rc_lookahead=50 / rc=2pass / mbtree=0 / bitrate=1821 / ratetol=1.0 / qcomp=0.70 / qpmin=10 / qpmax=69 / qpstep=4 / cplxblur=20.0 / qblur=0.5 / vbv_maxrate=50000 / vbv_bufsize=61400 / nal_hrd=none / ip_ratio=1.40 / pb_ratio=1.30 / aq=1:1.00
Язык: Russian
Default: Да
Forced: Нет
Основные цвета: BT.709-5, BT.1361, IEC 61966-2-4, SMPTE RP177
Характеристики трансфера: BT.709-5, BT.1361
Коэффициенты матрицы: BT.709-5, BT.1361, IEC 61966-2-4 709, SMPTE RP177

Аудио
Идентификатор: 2
Формат: AC-3
Формат/Информация: Audio Coding 3
Расширение режима: CM (complete main)
Идентификатор кодека: A_AC3
Продолжительность: 1 ч. 34 м.
Вид битрейта: Постоянный
Битрейт: 384 Кбит/сек
Каналы: 6 каналов
Расположение каналов: Front: L C R, Side: L R, LFE
Частота: 48,0 КГц
Битовая глубина: 16 бит
Метод сжатия: С потерями
Размер потока: 260 Мбайт (17%)
Заголовок: Original
Язык: Russian
Default: Да
Forced: Нет

Меню
00:00:00.000: en:Chapter 1
00:03:36.508: en:Chapter 2
00:08:00.313: en:Chapter 3
00:11:01.744: en:Chapter 4
00:13:24.721: en:Chapter 5
00:16:57.016: en:Chapter 6
00:20:51.250: en:Chapter 7
00:25:05.129: en:Chapter 8
00:30:09.975: en:Chapter 9
00:35:03.560: en:Chapter 10
00:39:06.177: en:Chapter 11
00:43:04.540: en:Chapter 12
00:46:16.816: en:Chapter 13
00:50:02.458: en:Chapter 14
00:52:48.707: en:Chapter 15
00:55:26.573: en:Chapter 16
00:57:09.926: en:Chapter 17
01:01:59.341: en:Chapter 18
01:05:47.569: en:Chapter 19
01:08:22.098: en:Chapter 20
01:12:05.404: en:Chapter 21
01:17:08.749: en:Chapter 22
01:24:01.912: en:Chapter 23
01:26:42.239: en:Chapter 24

x264 [info]: frame I:1131Avg QP:16.71size: 42814
x264 [info]: frame P:32946 Avg QP:18.28size: 18209
x264 [info]: frame B:107962 Avg QP:19.80size:6058
x264 [info]: consecutive B-frames:2.6%2.6% 10.3% 26.0% 16.0% 37.4%5.2%






реклама партнёра


Вернуться к началу
 Профиль  
 
   Похожие торренты   Автор   Торрент   Размер 
В этой теме нет новых непрочитанных сообщений. Четверг, 12-e [Комедия, мелодрама, 2012] DVD5 [Лицензия]

Dracon

114 | 22

3.54 ГБ

В этой теме нет новых непрочитанных сообщений. По признакам совместимости / Jewtopia [мелодрама, комедия, 2012] WEB-DL 720p, Dub [лицензия]

Dracon

998 | 27

2.9 ГБ

В этой теме нет новых непрочитанных сообщений. По признакам совместимости / Jewtopia [комедия, мелодрама, 2012] BDRip 720p, Dub [Лицензия]

salma3

56 | 5

4.61 ГБ

В этой теме нет новых непрочитанных сообщений. Мой парень – псих / Silver Linings Playbook [драма, мелодрама, комедия, 2012] BDRip-AVC, Mvo+Sub [лицензия]

salma3

90 | 5

1.46 ГБ

В этой теме нет новых непрочитанных сообщений. Афроiдиты [Комедия, 2012] DVDRip [лицензия]

Dracon

19 | 1

1.46 ГБ

В этой теме нет новых непрочитанных сообщений. Вот это любовь! [Мелодрама, комедия, 2013] DVDRip [Лицензия]

Dracon

140 | 4

1.37 ГБ

В этой теме нет новых непрочитанных сообщений. Муж двух жен / Run for Your Wife [комедия, 2012] DVDRip, Mvo [лицензия]

salma3

192 | 4

1.46 ГБ


Начать новую тему Ответить на тему  [ 1 сообщение ] 




Для Мосгорсуда, Роскомнадзора и рекламодателей:: mosgorsud-torrent[собачка]yandex.ru