Торрент файл
скачать торрент магнет ссылка Добавлен: 17 янв 2013, 01:21
Размер: 744.98 МБ
Сидеров: 61
Личеров: 3
Статус: (salma3)
Автор

СообщениеДобавлено: 17 янв 2013, 01:21 

Не в сети
Супермодератор
Аватара пользователя
Дата регистрации:
15 фев 2012, 16:44
Возраст: 27
Спасибо: 5139 / 2089
Сообщения: 17411
Год выпуска: 2012
Страна: Россия
Жанр: драма, криминал
Продолжительность: 01:19:51
Оригинальный язык: русский
Субтитры: нет
Режиссер и автор сценария: Алексей Балабанов
В ролях: Александр Мосин, Олег Гаркуша, Юрий Матвеев, Алиса Шитикова, Алексей Балабанов, Петр Балабанов, Виктор Горбунов, Авдотья Смирнова, Сергей Шолохов, Сергей Кульчицкий...

О фильме: По пустынной летней дороге мчится огромный черный джип. В нем — Бандит, его друг Матвей со стариком-отцом, Музыкант и красивая девушка. Они ищут Колокольню Счастья, которая по слухам находится где-то между Питером и Угличем, рядом с уже давно неработающей атомной станцией. Колокольня забирает людей. Но не всех. Но в темной большой машине каждый верит, что выберут его.




Исходник: DVD9 R5
Тип релиза: DVDRip
Контейнер: AVI
Видео: 720x384 (1.85:1), 25 fps, XviD ~ 1167 kbps avg, 0.169 bit/pixel
Аудио: 48 kHz, МР3 , 2 ch, 128.00 kbps

Раздача от:

Общее
Полное имя: Ya.tozhe.hochu.2012.O.DVDRip.745MB_[Youtracker]_by_avproh.avi
Формат: AVI
Формат/Информация: Audio Video Interleave
Размер файла: 745 Мбайт
Продолжительность: 1 ч. 19 м.
Общий поток: 1304 Кбит/сек
Программа кодирования: VirtualDubMod 1.5.10.3 | http://www.virtualdub-fr.org || (build 2550/release)
Библиотека кодирования: VirtualDubMod build 2550/release

Видео
Идентификатор: 0
Формат: MPEG-4 Visual
Профиль формата: Advanced Simple@L5
Параметр BVOP формата: 1
Параметр QPel формата: Нет
Параметр GMC формата: Без точки перехода
Параметр матрицы формата: Выборочная
Идентификатор кодека: XVID
Идентификатор кодека/Подсказка: XviD
Продолжительность: 1 ч. 19 м.
Битрейт: 1167 Кбит/сек
Ширина: 720 пикселей
Высота: 384 пикселя
Соотношение сторон: 1,85:1
Частота кадров: 25,000 кадров/сек
Цветовое пространство: YUV
Субдискретизация насыщенности: 4:2:0
Битовая глубина: 8 бит
Тип развёртки: Прогрессивная
Метод сжатия: С потерями
Бит/(Пиксели*Кадры): 0.169
Размер потока: 666 Мбайт (89%)
Библиотека кодирования: XviD 65

Аудио
Идентификатор: 1
Формат: MPEG Audio
Версия формата: Version 1
Профиль формата: Layer 3
Идентификатор кодека: 55
Идентификатор кодека/Подсказка: MP3
Продолжительность: 1 ч. 19 м.
Вид битрейта: Постоянный
Битрейт: 128 Кбит/сек
Каналы: 2 канала
Частота: 48,0 КГц
Метод сжатия: С потерями
Размер потока: 73,1 Мбайт (10%)
Выравнивание: Соединение по промежуткам
Продолжительность промежутка: 40мс. (1,00 видеокадр)
Время предзагрузки промежутка: 504мс.







реклама партнёра


Вернуться к началу
 Профиль Отправить личное сообщение  
 
   Похожие торренты   Автор   Торрент   Размер 
В этой теме нет новых непрочитанных сообщений. Инкассаторы [1-8 из 8] [Драма, криминал, 2012] DVDRip

iopuk60

0 | 2

4.34 ГБ

В этой теме нет новых непрочитанных сообщений. Горячая Точка / Flashpoint / 1-5 cезоны 1-84 серии из 84 [боевик, триллер, драма, криминал, 2008-2012] DVDRip / WEB-DLRip, Mvo [Universal]

salma3

27 | 21

33 ГБ

В этой теме нет новых непрочитанных сообщений. Леди-детектив мисс Фрайни Фишер / Miss Fisher's Murder Mysteries / 2 сезон 1-13 серии из 13 [драма, криминал, детектив, 2012] DVDRip, Mvo

salma3

145 | 54

5.43 ГБ

В этой теме нет новых непрочитанных сообщений. Леди-детектив мисс Фрайни Фишер / Miss Fisher's Murder Mysteries [S01-02] [драма, криминал, детектив, 2012-2013] DVDRip, HDRip, Mvo

salma3

151 | 102

15.92 ГБ

В этой теме нет новых непрочитанных сообщений. Подстава [Криминал, драма,2012] SATRip

iopuk60

0 | 6

2.17 ГБ

В этой теме нет новых непрочитанных сообщений. Собачья работа [1-8 из 8] [Криминал, детектив,2012] DVDRip

iopuk60

0 | 2

4.34 ГБ

В этой теме нет новых непрочитанных сообщений. Наперекор себе / I Against I [Триллер, криминал, 2012] DVDRip, Mvo

salma3

39 | 2

1.37 ГБ


Начать новую тему Ответить на тему  [ 1 сообщение ] 




Для Мосгорсуда, Роскомнадзора и рекламодателей:: mosgorsud-torrent[собачка]yandex.ru