Торрент файл
скачать торрент магнет ссылка Добавлен: 15 янв 2013, 14:33
Размер: 1.46 ГБ
Сидеров: 44
Личеров: 6
Статус: (Dracon)
Автор

СообщениеДобавлено: 15 янв 2013, 14:33 

Не в сети
Зам. Админа
Аватара пользователя
Дата регистрации:
02 дек 2010, 12:39
Спасибо: 12461 / 214
Сообщения: 27968
«Чудо заказывали?»



Год выпуска: 2012
Страна: Россия
Жанр:комедия
Продолжительность: 01:15:13

Оригинальный язык: русский
Субтитры: русский

Режиссер и автор сценария: Сергей Ткачев

В ролях: Григорий Сиятвинда, Мария Шалаева, Владимир Вдовиченков, Виктория Исакова, Ольга Сутулова, Виталий Хаев, Ольга Волкова, Дмитрий Шевченко, Владимир Ильин, Роман Мадянов...

О фильме: Каждый Новый год актер Слава Белкин подрабатывает Дедом Морозом на частных вызовах. К несчастью, на этот раз его постоянная партнерша-Снегурочка прислала вместо себя подружку. Как гласит народная мудрость — «что криво началось, прямо не продолжится!». Уже на третьем заказе мальчик Саша умудрился запереть гостей в квартире и выбросить ключ. А между тем дедушку Мороза ждут у себя серьезные люди, которые заплатили Славе Белкину хороший аванс и приготовились встречать новогоднее чудо у себя дома…





Исходник: DVD5 R5
Тип релиза: DVDRip-AVC
Контейнер: MKV

Видео: 720x572@1024x572 (16:9), 25 fps, H264 ~ 2385 kbps avg, 0.232 bit/pixel
Аудио: 48 kHz, AC3 , 6 ch, 384.00 kbps
Формат субтитров: SoftSub (srt)

Раздача от:

Общее
Полное имя: Prazdnik.vzaperti.2012.O.DVDRip-AVC_[Youtracker]_by_avproh.mkv
Формат: Matroska
Версия формата: Version 4 / Version 2
Размер файла: 1,46 Гбайт
Продолжительность: 1 ч. 15 м.
Общий поток: 2771 Кбит/сек
Дата кодирования: UTC 2010-02-22 21:41:31
Программа кодирования: mkvmerge v5.9.0 ('On The Loose') built on Dec9 2012 15:37:01
Библиотека кодирования: libebml v1.3.0 + libmatroska v1.4.0

Видео
Идентификатор: 1
Формат: AVC
Формат/Информация: Advanced Video Codec
Профиль формата: High@L4.1
Параметр CABAC формата: Да
Параметр ReFrames формата: 11 кадров
Идентификатор кодека: V_MPEG4/ISO/AVC
Продолжительность: 1 ч. 15 м.
Битрейт: 2385 Кбит/сек
Ширина: 720 пикселей
Высота: 572 пикселя
Соотношение сторон: 16:9
Частота кадров: 25,000 кадров/сек
Цветовое пространство: YUV
Субдискретизация насыщенности: 4:2:0
Битовая глубина: 8 бит
Тип развёртки: Прогрессивная
Бит/(Пиксели*Кадры): 0.232
Размер потока: 1,23 Гбайт (84%)
Библиотека кодирования: x264 core 119 r2106 07efeb4
Настройки программы: cabac=1 / ref=11 / deblock=1:-2:-1 / analyse=0x3:0x113 / me=umh / subme=9 / psy=1 / psy_rd=1.00:0.20 / mixed_ref=1 / me_range=32 / chroma_me=1 / trellis=1 / 8x8dct=1 / cqm=0 / deadzone=21,11 / fast_pskip=0 / chroma_qp_offset=-3 / threads=9 / sliced_threads=0 / nr=0 / decimate=0 / interlaced=0 / bluray_compat=0 / constrained_intra=0 / bframes=8 / b_pyramid=2 / b_adapt=2 / b_bias=0 / direct=3 / weightb=1 / open_gop=0 / weightp=2 / keyint=250 / keyint_min=25 / scenecut=40 / intra_refresh=0 / rc_lookahead=60 / rc=2pass / mbtree=1 / bitrate=2385 / ratetol=1.0 / qcomp=0.60 / qpmin=0 / qpmax=69 / qpstep=4 / cplxblur=20.0 / qblur=0.5 / ip_ratio=1.40 / aq=1:1.00
Язык: Russian
Default: Да
Forced: Нет

Аудио
Идентификатор: 2
Формат: AC-3
Формат/Информация: Audio Coding 3
Расширение режима: CM (complete main)
Параметр Endianness формата: Big
Идентификатор кодека: A_AC3
Продолжительность: 1 ч. 15 м.
Вид битрейта: Постоянный
Битрейт: 384 Кбит/сек
Каналы: 6 каналов
Расположение каналов: Front: L C R, Side: L R, LFE
Частота: 48,0 КГц
Битовая глубина: 16 бит
Метод сжатия: С потерями
Размер потока: 207 Мбайт (14%)
Язык: Russian
Default: Да
Forced: Нет

Текст
Идентификатор: 3
Формат: UTF-8
Идентификатор кодека: S_TEXT/UTF8
Идентификатор кодека/Информация: UTF-8 Plain Text
Язык: Russian
Default: Нет
Forced: Нет






реклама партнёра


Вернуться к началу
 Профиль  
 
   Похожие торренты   Автор   Торрент   Размер 
В этой теме нет новых непрочитанных сообщений. Праздник / Les marmottes [драма, мелодрама, комедия, 1993] DVDRip, Dvo

salma3

2 | 3

1.46 ГБ

В этой теме нет новых непрочитанных сообщений. Праздник начинается / Kacheri Aarambam [боевик, комедия, мелодрама, 2010] DVDRip, Mvo+Sub

salma3

22 | 2

1.46 ГБ

В этой теме нет новых непрочитанных сообщений. Royal Quest: Праздник урожая [v.1.0.071] [MMORPG, Action, 2012] [Лицензия]

druid81max

0 | 0

2.63 ГБ

В этой теме нет новых непрочитанных сообщений. Игорь Ивановский - Волшебный праздник / TV [2005, 2012, Dance, Experimental, Techno Metal, MP3]

PriZraK

0 | 3

91.59 МБ

В этой теме нет новых непрочитанных сообщений. Это праздник / It's Entertainment [Комедия, драма, 2014] HDRip, Dvo

salma3

3 | 3

2.19 ГБ

В этой теме нет новых непрочитанных сообщений. Забава / Это праздник / It's Entertainment [комедия, 2014] BDRip, Dvo

salma3

117 | 10

1.46 ГБ

В этой теме нет новых непрочитанных сообщений. Dee Waste - Взаперти [2007, Nu-metal, MP3]

PriZraK

0 | 1

111.2 МБ


Начать новую тему Ответить на тему  [ 1 сообщение ] 




Для Мосгорсуда, Роскомнадзора и рекламодателей:: mosgorsud-torrent[собачка]yandex.ru