Торрент файл
скачать торрент магнет ссылка Добавлен: 23 дек 2012, 15:34
Размер: 2.05 ГБ
Сидеров: 1281
Личеров: 54
Статус: (drink)
Автор

СообщениеДобавлено: 23 дек 2012, 15:34 

Не в сети
Супермодератор
Аватара пользователя
Дата регистрации:
11 апр 2010, 18:10
Спасибо: 5801 / 7
Сообщения: 56779

Информация о фильме
Название: Бригада: Наследник
Год выхода: 2012
Жанр: Боевик, криминал

Режиссер: Денис Алексеев

В ролях: Иван Макаревич, Екатерина Гусева, Кирилл Нагиев, Владислав Демин, Александр Иншаков, Анна Попова, Валерий Золотухин, Игорь Жижикин, Юрий Чурсин, Наталия Гуслистая

О фильме: Фильм является идейным продолжением жизни героев телесериала «Бригада». Однако акцент смещен в историю сына Александра Белова — Ивана. Это Кино о современной России. О том, что у всех на устах: политике, коррупции, цинизме крупного бизнеса и спецслужб. О новом поколении, которое, узнав правду о нечистом бизнесе родителей, не идет по их стопам, а выбирает новый путь. Для них дороги понятия чести, любви и Родины. Герой, комфортно живший за границей, тем не менее, выбирает Россию (в отличие от сериала) и остается жить в ней, надеясь привнести эти идеалы в жизнь своих близких и страны в целом.



Страна: Россия
Студия: Independent Movie Company
Продолжительность: 01:41:56
Перевод: Не требуется [Лицензия]

Файл
Кодек: AVC
Качество: DVDRip-AVC
Видео: 720x448@1024x448, 25 fps, 2427 Kbps
Звук: AC3, 48 kHz, 6 ch, 448 Kbps

Семпл

General
Unique ID: 250735857150092914517513607983242753035 (0xBCA1F833E2764D0CA2EB0E9F4331340B)
Complete name: E:Бригада.Наследник.2012.O.x264.DVDRip.mkv
Format: Matroska
Format version: Version 4 / Version 2
File size: 2.05 GiB
Duration: 1h 41mn
Overall bit rate: 2 873 Kbps
Movie name: ПаZиtиFFк@
Encoded date: UTC 2010-02-22 21:41:31
Writing application: mkvmerge v5.9.0 ('On The Loose') built on Dec9 2012 15:37:01
Writing library: libebml v1.3.0 + libmatroska v1.4.0

Video
ID: 1
Format: AVC
Format/Info: Advanced Video Codec
Format profile: High@L4.1
Format settings, CABAC: Yes
Format settings, ReFrames: 12 frames
Codec ID: V_MPEG4/ISO/AVC
Duration: 1h 41mn
Bit rate: 2 427 Kbps
Width: 720 pixels
Height: 448 pixels
Display aspect ratio: 2.25:1
Frame rate: 25.000 fps
Color space: YUV
Chroma subsampling: 4:2:0
Bit depth: 8 bits
Scan type: Progressive
Bits/(Pixel*Frame): 0.301
Stream size: 1.69 GiB (82%)
Title: NNM-CLUB.RU + ПаZиtиFFк@
Writing library: x264 core 125 r2208 d9d2288
Encoding settings: cabac=1 / ref=12 / deblock=1:-3:-3 / analyse=0x3:0x133 / me=umh / subme=10 / psy=1 / psy_rd=1.00:0.10 / mixed_ref=1 / me_range=32 / chroma_me=1 / trellis=2 / 8x8dct=1 / cqm=0 / deadzone=21,11 / fast_pskip=0 / chroma_qp_offset=-3 / threads=12 / lookahead_threads=2 / sliced_threads=0 / nr=0 / decimate=1 / interlaced=0 / bluray_compat=0 / constrained_intra=0 / bframes=8 / b_pyramid=2 / b_adapt=2 / b_bias=0 / direct=3 / weightb=1 / open_gop=0 / weightp=2 / keyint=250 / keyint_min=25 / scenecut=40 / intra_refresh=0 / rc_lookahead=50 / rc=2pass / mbtree=1 / bitrate=2427 / ratetol=1.0 / qcomp=0.60 / qpmin=0 / qpmax=69 / qpstep=4 / cplxblur=20.0 / qblur=0.5 / ip_ratio=1.40 / aq=1:1.00
Language: Russian
Default: Yes
Forced: No

Audio
ID: 2
Format: AC-3
Format/Info: Audio Coding 3
Mode extension: CM (complete main)
Format settings, Endianness: Big
Codec ID: A_AC3
Duration: 1h 41mn
Bit rate mode: Constant
Bit rate: 448 Kbps
Channel(s): 6 channels
Channel positions: Front: L C R, Side: L R, LFE
Sampling rate: 48.0 KHz
Bit depth: 16 bits
Compression mode: Lossy
Stream size: 327 MiB (16%)
Language: Russian
Default: Yes
Forced: No

Menu
00:00:00.000: ru:Chapter 1
00:07:08.887: ru:Chapter 2
00:13:29.017: ru:Chapter 3
00:17:47.441: ru:Chapter 4
00:24:03.275: ru:Chapter 5
00:31:19.920: ru:Chapter 6
00:36:56.756: ru:Chapter 7
00:44:27.039: ru:Chapter 8
00:52:50.626: ru:Chapter 9
01:00:53.900: ru:Chapter 10
01:07:27.710: ru:Chapter 11
01:12:04.570: ru:Chapter 12
01:15:24.311: ru:Chapter 13
01:21:14.787: ru:Chapter 14
01:27:12.644: ru:Chapter 15
01:33:19.844: ru:Chapter 16
01:38:14.948: ru:Chapter 17




реклама партнёра


Вернуться к началу
 Профиль Отправить личное сообщение  
 
   Похожие торренты   Автор   Торрент   Размер 
В этой теме нет новых непрочитанных сообщений. Боевая бригада / The Librarians [Боевик, Триллер, 2003] DVDRip-AVC, Dvo

salma3

36 | 3

1.37 ГБ

В этой теме нет новых непрочитанных сообщений. Черная бригада / Blue Hill Avenue [драма, криминал, 2001] WEB-DL 1080p, Dvo

salma3

41 | 1

5.36 ГБ

В этой теме нет новых непрочитанных сообщений. Черная бригада / Blue Hill Avenue [драма, криминал, 2001] WEB-DLRip, Dvo

salma3

57 | 26

2.18 ГБ

В этой теме нет новых непрочитанных сообщений. Ночная бригада / The Night Crew (Кристиан Сесма) [боевик, триллер, 2015] HDRip, Mvo [iTunes]

Dracon

9099 | 340

1.37 ГБ

В этой теме нет новых непрочитанных сообщений. Ночная бригада / The Night Crew (Кристиан Сесма) [боевик, триллер, 2015] BDRip 720p, Mvo [iTunes]

Dracon

893 | 63

4.61 ГБ

В этой теме нет новых непрочитанных сообщений. Ночная бригада / The Night Crew (Кристиан Сесма) [боевик, триллер, 2015] BDRip 1080p, Mvo [iTunes]

Dracon

607 | 52

6.79 ГБ

В этой теме нет новых непрочитанных сообщений. Ночная бригада / The Night Crew (Кристиан Сесма) [боевик, триллер, 2015] BDRemux 1080p, Mvo [iTunes]

Dracon

58 | 15

19.17 ГБ


Начать новую тему Ответить на тему  [ 1 сообщение ] 




Для Мосгорсуда, Роскомнадзора и рекламодателей:: mosgorsud-torrent[собачка]yandex.ru