Торрент файл
скачать торрент магнет ссылка Добавлен: 23 дек 2012, 12:35
Размер: 744.74 МБ
Сидеров: 31
Личеров: 6
Статус: (salma3)
Автор

СообщениеДобавлено: 23 дек 2012, 12:35 

Не в сети
5 Звёзд
Аватара пользователя
Дата регистрации:
20 апр 2012, 10:59
Возраст: 35
Спасибо: 941 / 102
Сообщения: 1292
Откуда: Москва

Страна: Россия, Казахстан
Жанр:мелодрама, комедия
Год выпуска: 2010
Продолжительность: 01:23:16

Перевод: не требуется
Оригинальная аудиодорожка: русский
Cубтитры: нет

Режиссер: Александр Черняев

В ролях: Алексей Чадов, Асель Сагатова, Ерик Жолжаксынов, Ирина Розанова, Ольга Орлова, Наталья Рудова, Фархад Абдраимов, Марина Черняева, Гоша Куценко, Карлыгаш Мухамеджанова...

Описание: Обычный день Асель начинается с шопинга и заканчивается бокалом Мохито на веранде дорогого ресторана. Она — частая героиня светской хроники. Даже лучшие подруги ей немного завидуют, ведь у нее есть все, о чем только можно мечтать: жених — владелец нефтяных вышек, квартира в центре Москвы и жизнь, полная удовольствий. И самое главное, у нее настоящий дар притягивать к себе мужчин. Но, чтобы взять очередной рубеж, и «круто попасть на TV» все свое обаяние ей придется направить на соблазнение очень необычного мужчины.
Только один человек в мире не считает его «ботаником» и неудачником. И поэтому мама — главная женщина в его жизни и авторитет во всем. У Асель очень мало времени и перед ней много препятствий. Чтобы соблазнить неудачника ей придется справиться с серьезной соперницей в лице мамы и такими несовременными представлениями Ивана о женщинах и о Любви.





Исходник: DVD5 R5
Тип релиза: DVDRip
Контейнер: AVI

Видео: 720x304 (2.35:1), 25 fps, XviD ~ 1113 kbps avg, 0.203 bit/pixel
Аудио: 48 kHz, МР3 , 2 ch, 128.00 kbps

Раздача от:

Общее
Полное имя: Ironiya.lubvi.2010.O.DVDRip.745MB_[Youtracker]_by_avproh.avi
Формат: AVI
Формат/Информация: Audio Video Interleave
Размер файла: 745 Мбайт
Продолжительность: 1 ч. 23 м.
Общий поток: 1250 Кбит/сек
Программа кодирования: VirtualDubMod 1.5.10.3 | http://www.virtualdub-fr.org || (build 2550/release)
Библиотека кодирования: VirtualDubMod build 2550/release

Видео
Идентификатор: 0
Формат: MPEG-4 Visual
Профиль формата: Advanced Simple@L5
Параметр BVOP формата: 1
Параметр QPel формата: Нет
Параметр GMC формата: Без точки перехода
Параметр матрицы формата: Выборочная
Идентификатор кодека: XVID
Идентификатор кодека/Подсказка: XviD
Продолжительность: 1 ч. 23 м.
Битрейт: 1113 Кбит/сек
Ширина: 720 пикселей
Высота: 304 пикселя
Соотношение сторон: 2,35:1
Частота кадров: 25,000 кадров/сек
Цветовое пространство: YUV
Субдискретизация насыщенности: 4:2:0
Битовая глубина: 8 бит
Тип развёртки: Прогрессивная
Метод сжатия: С потерями
Бит/(Пиксели*Кадры): 0.203
Размер потока: 663 Мбайт (89%)
Библиотека кодирования: XviD 65

Аудио
Идентификатор: 1
Формат: MPEG Audio
Версия формата: Version 1
Профиль формата: Layer 3
Идентификатор кодека: 55
Идентификатор кодека/Подсказка: MP3
Продолжительность: 1 ч. 23 м.
Вид битрейта: Постоянный
Битрейт: 128 Кбит/сек
Каналы: 2 канала
Частота: 48,0 КГц
Метод сжатия: С потерями
Размер потока: 76,2 Мбайт (10%)
Выравнивание: Соединение по промежуткам
Продолжительность промежутка: 40мс. (1,00 видеокадр)
Время предзагрузки промежутка: 504мс.






реклама партнёра


Вернуться к началу
 Профиль Отправить личное сообщение  
 
   Похожие торренты   Автор   Торрент   Размер 
В этой теме нет новых непрочитанных сообщений. Страна любви / The Republic of Love [мелодрама, комедия, 2003] DVDRip, Mvo

salma3

30 | 4

1.37 ГБ

В этой теме нет новых непрочитанных сообщений. Бизнес ради любви / Beauty & the briefcase [мелодрама, комедия, 2010] BDRip 720p, Dvo+Sub

salma3

37 | 4

3.42 ГБ

В этой теме нет новых непрочитанных сообщений. Ради твоей любви! / Gori Tere Pyaar Mein! [мелодрама, комедия, 2013] DVDRip, Sub

salma3

2 | 4

1.47 ГБ

В этой теме нет новых непрочитанных сообщений. История любви Джаянты-бхая / Jayantabhai Ki Luv Story [боевик, мелодрама, комедия, 2013] DVDRip, Avo+Sub

salma3

61 | 3

1.4 ГБ

В этой теме нет новых непрочитанных сообщений. Пир любви / Daawat-e-Ishq [драма, мелодрама, комедия, 2014] HDRip, Mvo+Sub

salma3

18 | 6

2.18 ГБ

В этой теме нет новых непрочитанных сообщений. Петербург. Только по любви [Комедия, мелодрама, 2016] WEB-DL 1080p [iTunes]

salma3

336 | 11

4.3 ГБ

В этой теме нет новых непрочитанных сообщений. Петербург. Только по любви [Комедия, мелодрама, 2016] WEB-DL 720p [iTunes]

salma3

313 | 7

3.43 ГБ


Начать новую тему Ответить на тему  [ 1 сообщение ] 




Для Мосгорсуда, Роскомнадзора и рекламодателей:: mosgorsud-torrent[собачка]yandex.ru