Торрент файл
скачать торрент магнет ссылка Добавлен: 18 дек 2012, 12:55
Размер: 3.25 ГБ
Сидеров: 44
Личеров: 10
Статус: (Aleksandr.ru)
Автор

СообщениеДобавлено: 18 дек 2012, 12:55 

Не в сети
5 Звёзд
Аватара пользователя
Дата регистрации:
20 апр 2012, 10:59
Возраст: 35
Спасибо: 941 / 102
Сообщения: 1292
Откуда: Москва

Название: Если невеста ведьма
Год выпуска: 2002
Жанр:комедия, мистика
Режиссер: Олег Фесенко
В ролях: Сергей Безруков, Ольга Погодина, Армен Джигарханян, Кирилл Балмин, Сергей Дорофеев, Юрий Королёв, Айлика Кремер, Павел Сметанкин, Дмитрий Соколов, Анна Терехова-Хашимова

Известный профессор нетрадиционных наук узнает, что на его «малой родине» в далекой деревушке происходят странные вещи, не поддающиеся логическому осмыслению. Командировав своего ассистента на место происшествий, профессор не подозревает о невероятных событиях, к которым приведет приезд «упакованного» городского научного работника. Молодой ученый пишет диссертацию на тему «Психодинамика колдовства» и пытается доказать, что явлений, описанных в исторических судах над ведьмами, быть не может. Но передвигать предметы одним взглядом, в одно мгновение перемещаться на любые расстояния, читать чужие мысли и в одиночку сражаться с целой армией — все это умеет симпатичная местная девчонка, папаша которой безуспешно пытается выдать юную колдунью замуж...

Дополнительная информация: По мотивам рассказа американского фантаста Джеймса Эдвина Ганна "Где бы ты ни был" (1953).



Выпущено: Россия
Качество: DVDRip-AVC
Продолжительность: 02:39:32
Перевод: Оригинал
Формат: MKV
Видео: 1024x576 (16:9), 2599kbps, 25fps, L4.1, AVC
Аудио: AC3, 320kbps, 2.1ch (L, R + LFE), 48kHz
Навигация по главам: Есть

Релиз от:

«Если невеста ведьма» — это комедия с ноткой мистики, что придает ему ту нотку, которая меня и заинтересовала.

Сюжет построен на том, что молодой ученый Максим Росс (Сергей Безруков), пытаясь сбежать от повседневной рутины городской жизни и спокойно дописать свою диссертацию, едет на дачу знакомого ему профессора. Там он встречает милую, симпатичную, немного простодушную и наивную девчонку Алису (Ольга Погодина). Она кажется ему очень забавной и смешной, что и привлекает его в ней, но он и не догадывается, что повстречал настоящую ведьму, которая способна на многое, если ее разозлить. Узнав о ее паранормальный способностях он начинает ее тренировать, сам не заметив того, что уже не может ее контролировать…

Что же будет, если ведьма, сознательно владеющая своими силами, влюбится, разочаруется и захочет отомстить или даже просто поиграться с объектом своей любви? Не превратил ли молодой ученый своими экспериментами милое, доброе, наивное создание в чудовище или он сам стал им?.. .

Именно на эти вопросы и отвечает этот сериал…

Магия и колдовство всегда привлекали и пугали человечество. В древности проблему страха решали сожжение ведьм на кострах. А что если ведьмы есть среди нас сейчас? Способен ли современный образованный человек понять, поверить и принять присутствие магии в 21 веке? Этими вопросами также задается Максим Росс. Те ответы, что он получит перевернут его взгляды на жизнь. Хотя я думаю, что магия везде и самая сильная -это магия любви. И именно любовь способна сделать из женщины ведьму… Потому что, когда любишь сделаешь для любимого невозможное.

Замечательная игра актеров, музыка, которая создает нужную атмосферу и просто интересный сюжет, что еще для счастья надо? Смотрите и наслаждайтесь!
Format: Matroska
Format version: Version 2
File size: 3.25 GiB
Duration: 2h 39mn
Overall bit rate: 2 921 Kbps
Movie name: Если невеста ведьма (2002) DVDRip-AVC от TORRENT-45
Encoded date: UTC 2012-12-17 18:33:26
Writing application: mkvmerge v5.8.0 ('No Sleep / Pillow') built on Sep2 2012 15:37:04
Writing library: libebml v1.2.3 + libmatroska v1.3.0

Video
ID: 1
Format: AVC
Format/Info: Advanced Video Codec
Format profile: High@L4.1
Format settings, CABAC: Yes
Format settings, ReFrames: 4 frames
Codec ID: V_MPEG4/ISO/AVC
Duration: 2h 39mn
Bit rate: 2 599 Kbps
Width: 1 024 pixels
Height: 576 pixels
Display aspect ratio: 16:9
Frame rate mode: Constant
Frame rate: 25.000 fps
Color space: YUV
Chroma subsampling: 4:2:0
Bit depth: 8 bits
Scan type: Progressive
Bits/(Pixel*Frame): 0.176
Stream size: 2.83 GiB (87%)
Title: Если невеста ведьма (2002) DVDRip-AVC от TORRENT-45
Writing library: x264 core 125 r2208 d9d2288
Encoding settings: cabac=1 / ref=4 / deblock=1:-3:-3 / analyse=0x3:0x133 / me=umh / subme=10 / psy=1 / psy_rd=1.00:0.00 / mixed_ref=0 / me_range=32 / chroma_me=1 / trellis=2 / 8x8dct=1 / cqm=0 / deadzone=21,11 / fast_pskip=1 / chroma_qp_offset=-2 / threads=6 / lookahead_threads=1 / sliced_threads=0 / nr=0 / decimate=1 / interlaced=0 / bluray_compat=0 / constrained_intra=0 / bframes=6 / b_pyramid=2 / b_adapt=2 / b_bias=0 / direct=3 / weightb=1 / open_gop=0 / weightp=2 / keyint=250 / keyint_min=23 / scenecut=40 / intra_refresh=0 / rc_lookahead=60 / rc=2pass / mbtree=1 / bitrate=2599 / ratetol=1.0 / qcomp=0.60 / qpmin=0 / qpmax=69 / qpstep=4 / cplxblur=20.0 / qblur=0.5 / ip_ratio=1.40 / aq=1:1.00
Default: Yes
Forced: No

Audio
ID: 2
Format: AC-3
Format/Info: Audio Coding 3
Mode extension: CM (complete main)
Format settings, Endianness: Big
Codec ID: A_AC3
Duration: 2h 39mn
Bit rate mode: Constant
Bit rate: 320 Kbps
Channel(s): 2 channels
Channel positions: Front: L R
Sampling rate: 48.0 KHz
Bit depth: 16 bits
Compression mode: Lossy
Stream size: 365 MiB (11%)
Title: RUS Оригинал
Default: Yes
Forced: No

Menu
00:00:00.000: :Диссертация
00:01:07.240: :Титры
00:02:39.720: :Вкус свободы
00:05:36.000: :Попутчица
00:14:00.000: :Разговор с отцом
00:30:50.080: :Психодинамика
00:35:50.160: :"Она сделала это!"
00:40:47.000: :Уникальные способности
00:52:42.160: :Поездка в центр
01:00:31.160: :Преображение Алисы
01:08:20.920: :Ужин в ресторане
01:16:18.000: :Одна в ночном городе
01:21:50.080: :Возвращение
01:25:38.280: :Параметры ведьмы
01:31:30.120: :Эксперемент продолжается
01:37:49.880: :"Вы же сам черт!"
01:43:48.920: :Макс пытается бежать
01:52:55.760: :В ночном клубе
02:01:09.720: :Призрачная свобода
02:10:30.040: :"К чорту диссертацию!"
02:17:46.920: :Наваждение
02:29:44.920: :Смятение профессора
02:35:10.120: :"Не обижай..."
02:36:32.440: :Титры








реклама партнёра


Вернуться к началу
 Профиль Отправить личное сообщение  
 
   Похожие торренты   Автор   Торрент   Размер 
В этой теме нет новых непрочитанных сообщений. Шерлок: Безобразная невеста / Sherlock: The Abominable Bride (Дуглас МакКиннон) [2015, Детектив, криминал, мистика, экранизация , HDTVRip 1080p ] [DD5.1] [Dub Rus , Eng]+[Sub Rus , Eng]

Враг Нароода

15 | 2

6.44 ГБ

В этой теме нет новых непрочитанных сообщений. Моя невеста из Болливуда / My Bollywood Bride [Драма, мелодрама, комедия, 2006] DVDRip, Dvo

salma3

33 | 7

1.37 ГБ

В этой теме нет новых непрочитанных сообщений. Золотая невеста [комедия, 2014] SATRip

Dracon

155 | 6

1.24 ГБ

В этой теме нет новых непрочитанных сообщений. Золотая невеста [комедия, 2014] HDTV 1080i

Dracon

37 | 4

5.18 ГБ

В этой теме нет новых непрочитанных сообщений. Мёртвая зона / The Dead Zone 1-6 сезоны 1-80 серии из 80 [фантастика, мистика, драма, детектив, 2002-2007] DVDRip, Mvo [ОРТ, СТС, ДТВ, AXN Sci-Fi]

salma3

8 | 8

29.15 ГБ

В этой теме нет новых непрочитанных сообщений. Невеста с заправки [серия 1-2 из 2] [Комедия, Мелодрама, 2014] SATRip

Dracon

5 | 2

1.09 ГБ

В этой теме нет новых непрочитанных сообщений. Ведьма Из Непала / Qi yuan [ужасы, боевик, 1985] DVDRip, Avo

salma3

0 | 4

1.46 ГБ


Начать новую тему Ответить на тему  [ 1 сообщение ] 




Для Мосгорсуда, Роскомнадзора и рекламодателей:: mosgorsud-torrent[собачка]yandex.ru