Торрент файл
скачать торрент магнет ссылка Добавлен: 18 дек 2012, 12:43
Размер: 2.19 ГБ
Сидеров: 112
Личеров: 9
Статус: (Aleksandr.ru)
Автор

СообщениеДобавлено: 18 дек 2012, 12:43 

Не в сети
5 Звёзд
Аватара пользователя
Дата регистрации:
20 апр 2012, 10:59
Возраст: 35
Спасибо: 941 / 102
Сообщения: 1292
Откуда: Москва

Информация о фильме
Название: Улыбка Бога, или Чисто одесская история (Ход котом, или Чисто одесская история) (2008) DVDRip-AVC
Год выхода: 2008
Жанр: фэнтези, комедия, мелодрама
Режиссер: Владимир Алеников
В ролях: Иван Жидков, Армен Джигарханян, Роман Карцев, Мария Горбань, Александр Панкратов-Черный, Тамара Тана, Нина Усатова, Сергей Мигицко, Вячеслав Гришечкин, Дмитрий Сергин

О фильме:
Богатый старый одессит Филипп Ольшанский, который в очередной раз собирается отойти в мир иной, созывает всю семью и объявляет о некоторых изменениях в завещании. Чтобы исполнить просьбу дедушки, его внуку Алэну приходится вылететь в Одессу. И здесь он попадает в череду приключений. Несмотря на то, что оставил в Америке свою прагматичную невесту, Алэн встречается с очаровательной рыжеволосой одесситкой и…


Страна: Россия
Студия: Filmmuse Productions, Pictures Forever and Ever
Продолжительность: 02:02:01
Перевод: не требуется (оригинал)

Файл
Кодек: MKV, H.264
Качество: DVDRip-AVC
Видео: h264 (High), yuv420p, 998x432, PAR 1:1 DAR 499:216, 2115 kbps, 24.99 fps, 25 tbr, 1k tbn, 180k tbc
Звук: AC3, 48000 Hz, 5.0, s16, 448 kb/s
General
Unique ID: 272269717702319108151118621603306288849 (0xCCD53D7F88E43E1C3FBB87E0F63E36D1)
Complete name: /mnt/disk/Video/Ulybka.Boga.ili.Chisto.odesskaya.istoriya.DVDRip-AVC.UAGet.mkv
Format: Matroska
File size: 2.19 GiB
Duration: 2h 2mn
Overall bit rate: 2 564 Kbps
Movie name: Улыбка Бога, или Чисто одесская история (2008) DVDRip-AVC -=UAGet=-
Encoded date: UTC 2012-12-17 06:06:53
Writing application: mkvmerge v4.8.0 ('I Got The...') сборка от Aug 22 2011 13:16:28
Writing library: libebml v1.2.0 + libmatroska v1.1.0

Video
ID: 1
Format: AVC
Format/Info: Advanced Video Codec
Format profile: High@L4.1
Format settings, CABAC: Yes
Format settings, ReFrames: 8 frames
Codec ID: V_MPEG4/ISO/AVC
Duration: 2h 2mn
Bit rate: 2 115 Kbps
Width: 998 pixels
Height: 432 pixels
Display aspect ratio: 2.35:1
Frame rate mode: Variable
Frame rate: 25.000 fps
Color space: YUV
Chroma subsampling: 4:2:0
Bit depth: 8 bits
Scan type: Progressive
Bits/(Pixel*Frame): 0.196
Stream size: 1.76 GiB (81%)
Title: Улыбка Бога, или Чисто одесская история (2008) DVDRip-AVC -=UAGet=-
Writing library: x264 core 128
Encoding settings: cabac=1 / ref=9 / deblock=1:-2:-1 / analyse=0x3:0x133 / me=umh / subme=11 / psy=1 / psy_rd=1,00:0,20 / mixed_ref=1 / me_range=32 / chroma_me=1 / trellis=2 / 8x8dct=1 / cqm=0 / deadzone=21,11 / fast_pskip=0 / chroma_qp_offset=-3 / threads=6 / lookahead_threads=1 / sliced_threads=0 / nr=0 / decimate=1 / interlaced=0 / bluray_compat=0 / constrained_intra=0 / bframes=9 / b_pyramid=1 / b_adapt=2 / b_bias=0 / direct=3 / weightb=1 / open_gop=0 / weightp=2 / keyint=250 / keyint_min=25 / scenecut=40 / intra_refresh=0 / rc=2pass / mbtree=0 / bitrate=2115 / ratetol=1,0 / qcomp=1,00 / qpmin=3 / qpmax=69 / qpstep=4 / cplxblur=20,0 / qblur=0,5 / ip_ratio=1,40 / pb_ratio=1,30 / aq=2:0,60
Language: Russian
Color primaries: BT.470-6 System B, BT.470-6 System G, BT.601-6 625, BT.1358 625, BT.1700 625 PAL, BT.1700 625 SECAM
Transfer characteristics: BT.709-5, BT.1361
Matrix coefficients: BT.601-6 525, BT.1358 525, BT.1700 NTSC, SMPTE 170M

Audio
ID: 2
Format: AC-3
Format/Info: Audio Coding 3
Mode extension: CM (complete main)
Codec ID: A_AC3
Duration: 2h 2mn
Bit rate mode: Constant
Bit rate: 448 Kbps
Channel(s): 5 channels
Channel positions: Front: L C R, Side: L R
Sampling rate: 48.0 KHz
Bit depth: 16 bits
Compression mode: Lossy
Stream size: 391 MiB (17%)
Title: Русский (оригинал) [AC3 5.0, 448 kbps, 48.0 KHz]
Language: Russian

Релиз от:









реклама партнёра


Вернуться к началу
 Профиль Отправить личное сообщение  
 
   Похожие торренты   Автор   Торрент   Размер 
В этой теме нет новых непрочитанных сообщений. Ой зая как там у меня всё аккуратно и чисто [2016 г., Amateur, Homemade, All Sex, CamRip]

Dievas

0 | 0

100.8 МБ

В этой теме нет новых непрочитанных сообщений. Китайская история / Qing dian da sheng [фантастика, фэнтези, боевик, драма, мелодрама, комедия, 2005] DVDRip, Mvo

salma3

6 | 2

1.87 ГБ

В этой теме нет новых непрочитанных сообщений. Лос-Анджелесская история / L.A. Story [комедия, мелодрама, драма, фэнтези, 1991] BDRip 720p, Mvo+2Avo+Sub

salma3

24 | 2

5.43 ГБ

В этой теме нет новых непрочитанных сообщений. Рапунцель: Запутанная история / Tangled [мультфильм, мюзикл, фэнтези, мелодрама, комедия, семейный, 2010] BDRip-AVC, Dub

salma3

39 | 3

1.46 ГБ

В этой теме нет новых непрочитанных сообщений. История Мари и Жюльена / Histoire de Marie et Julien [фэнтези, драма, мелодрама, детектив, 2003] DVDRip, Avo

salma3

0 | 2

1.84 ГБ

В этой теме нет новых непрочитанных сообщений. Pure Ass / Чисто в Зад (Derek Dozer / Airerose Entertainment) (Phoenix Marie, Nikki Delano, Savannah Fox, Lea Lexis, Derrick Pierce...) [2014 г., Gonzo, Anal, WEB-DL 480p](Split Scenes)

friizze

0 | 3

1.35 ГБ

В этой теме нет новых непрочитанных сообщений. История Золушки / A Cinderella Story [мелодрама, комедия, семейный, 2004] DVDRip, Mvo

salma3

83 | 5

1.37 ГБ


Начать новую тему Ответить на тему  [ 1 сообщение ] 




Для Мосгорсуда, Роскомнадзора и рекламодателей:: mosgorsud-torrent[собачка]yandex.ru