Торрент файл
скачать торрент магнет ссылка Добавлен: 14 дек 2012, 21:10
Размер: 1.46 ГБ
Сидеров: 9
Личеров: 3
Статус: (Dracon)
Автор

СообщениеДобавлено: 14 дек 2012, 21:10 

Не в сети
Зам. Админа
Аватара пользователя
Дата регистрации:
02 дек 2010, 12:39
Спасибо: 12461 / 214
Сообщения: 27968
«За любовь! За дружбу! За корону Российской империи!»



Страна: Россия
Жанр:приключения
Год выпуска: 2012
Продолжительность: 01:35:47

Перевод: не требуется
Оригинальная аудиодорожка: русский
Cубтитры: нет

Режиссер: Олег Фесенко

В ролях: Сергей Безруков, Антон Соколов, Анна Чиповская, Анатолий Белый, Станислав Дужников, Валерий Николаев, Алексей Макаров, Борис Клюев, Эрик Фратичелли, Гедиминас Адомайтис...

Описание:1812 год. Накануне решающей битвы при Бородино тайный агент Наполеона похищает план сражения. Об этом становится известно Кутузову, и он посылает на перехват своих лучших улан. Путь их лежит в Польшу, где разворачивается бурный роман Наполеона с графиней Валевской…






Исходник: DVD9 R5
Тип релиза: DVDRip
Контейнер: AVI

Видео: 720x400 (16:9), 25 fps, XviD ~ 1718 kbps avg, 0.239 bit/pixel
Аудио: 48 kHz, АС3 , 6 ch, 448.00 kbps

Раздача от:

Общее
Полное имя: 1812.Ulanskaja.ballada.2012.O.DVDRip_[Youtracker]_by_avproh.avi
Формат: AVI
Формат/Информация: Audio Video Interleave
Размер файла: 1,46 Гбайт
Продолжительность: 1 ч. 35 м.
Общий поток: 2176 Кбит/сек
Программа кодирования: VirtualDubMod 1.5.10.3 | http://www.virtualdub-fr.org || (build 2550/release)
Библиотека кодирования: VirtualDubMod build 2550/release

Видео
Идентификатор: 0
Формат: MPEG-4 Visual
Профиль формата: Advanced Simple@L5
Параметр BVOP формата: 1
Параметр QPel формата: Нет
Параметр GMC формата: Без точки перехода
Параметр матрицы формата: Выборочная
Идентификатор кодека: XVID
Идентификатор кодека/Подсказка: XviD
Продолжительность: 1 ч. 35 м.
Битрейт: 1718 Кбит/сек
Ширина: 720 пикселей
Высота: 400 пикселей
Соотношение сторон: 16:9
Частота кадров: 25,000 кадров/сек
Цветовое пространство: YUV
Субдискретизация насыщенности: 4:2:0
Битовая глубина: 8 бит
Тип развёртки: Прогрессивная
Метод сжатия: С потерями
Бит/(Пиксели*Кадры): 0.239
Размер потока: 1,15 Гбайт (79%)
Библиотека кодирования: XviD 65

Аудио
Идентификатор: 1
Формат: AC-3
Формат/Информация: Audio Coding 3
Расширение режима: CM (complete main)
Параметр Endianness формата: Big
Идентификатор кодека: 2000
Продолжительность: 1 ч. 35 м.
Вид битрейта: Постоянный
Битрейт: 448 Кбит/сек
Каналы: 6 каналов
Расположение каналов: Front: L C R, Side: L R, LFE
Частота: 48,0 КГц
Битовая глубина: 16 бит
Метод сжатия: С потерями
Размер потока: 307 Мбайт (21%)
Выравнивание: Разделение по промежуткам
Продолжительность промежутка: 40мс. (1,00 видеокадр)
Время предзагрузки промежутка: 500мс.






реклама партнёра


Вернуться к началу
 Профиль  
 
   Похожие торренты   Автор   Торрент   Размер 
В этой теме нет новых непрочитанных сообщений. The War of 1812 - Feed Me To The Sea [EP] [Cентябрь 2011, Deathcore, Metalcore, MP3]

PriZraK

0 | 2

22.41 МБ

В этой теме нет новых непрочитанных сообщений. 1812-1815. Заграничный поход (Павел Тупик, Андрей Верещагин) [Документальный, драма, исторический, реконструкция, 2014] HDTVRip

Dracon

0 | 1

2.86 ГБ

В этой теме нет новых непрочитанных сообщений. 1812-1815. Заграничный поход [01-04 из 04] (Павел Тупик, Андрей Верещагин) [Документальный, драма, исторический, реконструкция, 2014] HDTV 1080i

Dracon

298 | 78

7.75 ГБ

В этой теме нет новых непрочитанных сообщений. Турецкий для начинающих / Turkisch fur Anfanger [комедия, приключения, 2012] BDRip 1080p, Dub+Sub [Лицензия]

salma3

57 | 4

7.93 ГБ

В этой теме нет новых непрочитанных сообщений. Турецкий для начинающих / Turkisch fur Anfanger [комедия, приключения, 2012] BDRip 720p, Dub+Sub [Лицензия]

salma3

33 | 4

5.63 ГБ

В этой теме нет новых непрочитанных сообщений. Путешествие к Рождественской звезде / Reisen til julestjernen [фэнтези, приключения, семейный, 2012] HDRip, Mvo [Лицензия]

Dracon

1251 | 34

1.38 ГБ

В этой теме нет новых непрочитанных сообщений. Семейка вампиров / Die Vampirschwestern [фэнтези, драма, комедия, приключения, семейный, 2012] HDRip, Dub [Лицензия]

Dracon

211 | 8

1.46 ГБ


Начать новую тему Ответить на тему  [ 1 сообщение ] 




Для Мосгорсуда, Роскомнадзора и рекламодателей:: mosgorsud-torrent[собачка]yandex.ru