Торрент файл
скачать торрент магнет ссылка Добавлен: 10 дек 2012, 21:20
Размер: 1.46 ГБ
Сидеров: 98
Личеров: 5
Статус: (Dracon)
Автор

СообщениеДобавлено: 10 дек 2012, 21:20 

Не в сети
Зам. Админа
Аватара пользователя
Дата регистрации:
02 дек 2010, 12:39
Спасибо: 12461 / 214
Сообщения: 27968
Страна: Россия
Жанр:комедия
Год выпуска: 2012
Продолжительность: 01:23:24

Перевод: не требуется
Оригинальная аудиодорожка: русский
Cубтитры: нет

Режиссер: Арман Геворгян

В ролях: Сергей Даниелян, Елена Захарова, Фрида Йорк, Карен Мартиросян, Александр Песков, Наталья Громушкина, Михаил Полицеймако, Сергей Астахов, Сергей Лавыгин, Наталья Бардо...

Описание: В Россию для постановки скандальной пьесы «Три служанки одного господина» возвращается прославленный режиссер Станислав Краскович. Но цель его не родина и даже не работа, а Мария — актриса, в которую он влюблен много лет, но не решается ей в этом признаться. Однако, есть маленькая загвоздка — мечта всей его жизни некстати оказывается замужем за самовлюбленным и прагматичным ловеласом.
И всё-таки они решаются на встречу в его квартире, чтобы обсудить её роль в пьесе. Но проблема в том, что в борьбу с ней за роль и режиссера вступают молодая актриса Катя, переодевшаяся служанкой, и экспрессивная соседка Кристина, муж которой — Оружейный барон — спонсировал театральную постановку Станислава.
И всё бы ничего, если бы в дело не вмешались пистолеты и снотворно-слабительные препараты, весёлые врачи и бешеный консьерж… И только любовь может победить самые коварные обстоятельства!





Исходник: DVD5 R5
Тип релиза: DVDRip
Контейнер: AVI

Видео: 720x400 (16:9), 25 fps, XviD ~ 2043 kbps avg, 0.284 bit/pixel
Аудио: 48 kHz, MP3, 6 ch, 448.00 kbps

Раздача от:

Общее
Полное имя: V.Rossiyu.za.lubovyu.2012.O.DVDRip_[Youtracker]_by_avproh.avi
Формат: AVI
Формат/Информация: Audio Video Interleave
Размер файла: 1,46 Гбайт
Продолжительность: 1 ч. 23 м.
Общий поток: 2500 Кбит/сек
Программа кодирования: VirtualDubMod 1.5.10.3 | http://www.virtualdub-fr.org || (build 2550/release)
Библиотека кодирования: VirtualDubMod build 2550/release

Видео
Идентификатор: 0
Формат: MPEG-4 Visual
Профиль формата: Advanced Simple@L5
Параметр BVOP формата: 1
Параметр QPel формата: Нет
Параметр GMC формата: Без точки перехода
Параметр матрицы формата: Выборочная
Идентификатор кодека: XVID
Идентификатор кодека/Подсказка: XviD
Продолжительность: 1 ч. 23 м.
Битрейт: 2043 Кбит/сек
Ширина: 720 пикселей
Высота: 400 пикселей
Соотношение сторон: 16:9
Частота кадров: 25,000 кадров/сек
Цветовое пространство: YUV
Субдискретизация насыщенности: 4:2:0
Битовая глубина: 8 бит
Тип развёртки: Прогрессивная
Метод сжатия: С потерями
Бит/(Пиксели*Кадры): 0.284
Размер потока: 1,19 Гбайт (82%)
Библиотека кодирования: XviD 65

Аудио
Идентификатор: 1
Формат: AC-3
Формат/Информация: Audio Coding 3
Расширение режима: CM (complete main)
Параметр Endianness формата: Big
Идентификатор кодека: 2000
Продолжительность: 1 ч. 23 м.
Вид битрейта: Постоянный
Битрейт: 448 Кбит/сек
Каналы: 6 каналов
Расположение каналов: Front: L C R, Side: L R, LFE
Частота: 48,0 КГц
Битовая глубина: 16 бит
Метод сжатия: С потерями
Размер потока: 267 Мбайт (18%)
Выравнивание: Разделение по промежуткам
Продолжительность промежутка: 40мс. (1,00 видеокадр)
Время предзагрузки промежутка: 500мс.






реклама партнёра


Вернуться к началу
 Профиль  
 
   Похожие торренты   Автор   Торрент   Размер 
В этой теме нет новых непрочитанных сообщений. С любовью, Рози / Love, Rosie С любовью, Рози / Love, Rosie (Кристиан Диттер) [мелодрама, комедия, 2015] HDRip, avo

Dracon

4 | 2

1.37 ГБ

В этой теме нет новых непрочитанных сообщений. Как заниматься любовью по-английски (Том Вон) [мелодрама, комедия, 2014] WEB-DLRip, Dub

Dracon

239 | 10

1.46 ГБ

В этой теме нет новых непрочитанных сообщений. Как заниматься любовью по-английски / How to Make Love Like an Englishman (Том Вон) [Мелодрама, комедия, 2014] WEB-DL 720p, Dub

Dracon

38 | 1

3.2 ГБ

В этой теме нет новых непрочитанных сообщений. С любовью, Рози / Love, Rosie (Кристиан Диттер) [мелодрама, комедия, 2015] WEB-DLRip, dub [звук TS]

Dracon

4 | 4

1.46 ГБ

В этой теме нет новых непрочитанных сообщений. С любовью, Рози / Love, Rosie (Кристиан Диттер) [мелодрама, комедия, 2015] WEB-DLRip 720p, dub [звук TS]

Dracon

4 | 3

3.46 ГБ

В этой теме нет новых непрочитанных сообщений. Как заниматься любовью по-английски / How to Make Love Like an Englishman (Том Вон) [Мелодрама, комедия, 2014] WEB-DL 720p [Lucky Strike]

Dracon

136 | 1

3.15 ГБ

В этой теме нет новых непрочитанных сообщений. С любовью, Рози / Love, Rosie (Кристиан Диттер) [мелодрама, комедия, 2015] HDRip, dub [Чистый звук]

Dracon

7340 | 221

1.37 ГБ


Начать новую тему Ответить на тему  [ 1 сообщение ] 




Для Мосгорсуда, Роскомнадзора и рекламодателей:: mosgorsud-torrent[собачка]yandex.ru