Торрент файл
скачать торрент магнет ссылка Добавлен: 07 дек 2012, 00:24
Размер: 2.17 ГБ
Сидеров: 14
Личеров: 1
Статус: (salma3)
Автор

СообщениеДобавлено: 07 дек 2012, 00:24 

Не в сети
5 Звёзд
Аватара пользователя
Дата регистрации:
20 апр 2012, 10:59
Возраст: 35
Спасибо: 941 / 102
Сообщения: 1292
Откуда: Москва

Информация о фильме

Название: Любовь с акцентом
Год выхода: 2012
Жанр:комедия, приключения
Режиссер: Резо Гигинеишвили
В ролях: Светлана Бондарчук, Филипп Янковский, Надежда Михалкова, Анна Михалкова, Никита Ефремов, Артур Смольянинов, Ирина Пегова, Ольга Баблуани, Дута Схиртладзе, Георгий Кипшидзе

Сюжет фильма: «Любовь с акцентом» — фильм о настоящей любви: яркой и страстной, зрелой и беспощадной, наивной и нелепой, счастливой и не очень. Истории героев сплетаются в одну большую ироничную комедию о том, что настоящая любовь не знает ни границ, ни законов, ни национальностей. Романтические приключения таких разных и непохожих друг на друга героев под аккомпанемент завораживающей южной природы.

Продолжительность: 01:43:49
Перевод: Ориинал (Русский) [Лицензия]
Выпущено: Россия

Файл
Качество: BDRip [720p]
Видео: 1280x544, 2631 Кбит/сек, 24,000 кадр/сек, AVC, x264, 2,35:1, 0.157 Бит/[Пиксели*Кадры], 2pass
Аудио: AC-3, 384 Кбит/сек, 6 канала(ов), 48,0 КГц
Размер: 2,17 ГБ

Бюджет Фильма: -
Кассовые сборы: -

Релиз от:






Общее
Уникальный идентификатор: 246242252367323234883451310284995782187 (0xB9408861B2C7A99A8D13E765BBD3662B)
Полное имя: A:РаздачиLyubov.s.aktsentom.2012.x264.BDRip.720p.mkv
Формат: Matroska
Версия формата: Version 2
Размер файла: 2,17 Гбайт
Продолжительность: 1 ч. 43 м.
Общий поток: 2990 Кбит/сек
Дата кодирования: UTC 2012-12-05 17:50:01
Программа кодирования: mkvmerge v5.5.0 ('Healer') built on Apr6 2012 21:43:24
Библиотека кодирования: libebml v1.2.3 + libmatroska v1.3.0

Видео
Идентификатор: 1
Формат: AVC
Формат/Информация: Advanced Video Codec
Профиль формата: High@L3.1
Параметр CABAC формата: Да
Параметр ReFrames формата: 4 кадра
Идентификатор кодека: V_MPEG4/ISO/AVC
Продолжительность: 1 ч. 43 м.
Битрейт: 2631 Кбит/сек
Ширина: 1280 пикселей
Высота: 544 пикселя
Соотношение сторон: 2,35:1
Соотношение сторон в оригинале: 2,35:1
Частота кадров: 24,000 кадра/сек
Цветовое пространство: YUV
Субдискретизация насыщенности: 4:2:0
Битовая глубина: 8 бит
Тип развёртки: Прогрессивная
Бит/(Пиксели*Кадры): 0.157
Размер потока: 1,85 Гбайт (85%)
Заголовок: Любовь с акцентом
Библиотека кодирования: x264 core 129 r2230 1cffe9f
Настройки программы: cabac=1 / ref=3 / deblock=1:0:0 / analyse=0x3:0x113 / me=hex / subme=7 / psy=1 / psy_rd=1.00:0.00 / mixed_ref=1 / me_range=16 / chroma_me=1 / trellis=1 / 8x8dct=1 / cqm=0 / deadzone=21,11 / fast_pskip=1 / chroma_qp_offset=-2 / threads=12 / lookahead_threads=2 / sliced_threads=0 / nr=0 / decimate=1 / interlaced=0 / bluray_compat=0 / constrained_intra=0 / bframes=3 / b_pyramid=2 / b_adapt=1 / b_bias=0 / direct=1 / weightb=1 / open_gop=0 / weightp=2 / keyint=240 / keyint_min=24 / scenecut=40 / intra_refresh=0 / rc_lookahead=40 / rc=2pass / mbtree=1 / bitrate=2631 / ratetol=1.0 / qcomp=0.60 / qpmin=10 / qpmax=51 / qpstep=4 / cplxblur=20.0 / qblur=0.5 / ip_ratio=1.40 / aq=1:1.00
Язык: English
Default: Да
Forced: Нет

Аудио
Идентификатор: 2
Формат: AC-3
Формат/Информация: Audio Coding 3
Расширение режима: CM (complete main)
Идентификатор кодека: A_AC3
Продолжительность: 1 ч. 43 м.
Вид битрейта: Постоянный
Битрейт: 384 Кбит/сек
Каналы: 6 каналов
Расположение каналов: Front: L C R, Side: L R, LFE
Частота: 48,0 КГц
Битовая глубина: 16 бит
Метод сжатия: С потерями
Размер потока: 285 Мбайт (13%)
Заголовок: Русский
Язык: Russian
Default: Да
Forced: Нет




реклама партнёра


Вернуться к началу
 Профиль Отправить личное сообщение  
 
   Похожие торренты   Автор   Торрент   Размер 
В этой теме нет новых непрочитанных сообщений. Турецкий для начинающих / Turkisch fur Anfanger [комедия, приключения, 2012] BDRip 720p, Dub+Sub [Лицензия]

salma3

33 | 4

5.63 ГБ

В этой теме нет новых непрочитанных сообщений. Любовь от всех болезней / Supercondriaque [комедия, 2014] BDRip 720p, Dub [лицензия]

Dracon

575 | 22

5.27 ГБ

В этой теме нет новых непрочитанных сообщений. Любовь в квадрате / Des gens qui s'embrassent [драма, комедия, 2013] BDRip 720p, Mvo [Лицензия]

Dracon

54 | 3

3.78 ГБ

В этой теме нет новых непрочитанных сообщений. Любовь с препятствиями / Un bonheur n'arrive jamais seul [мелодрама, комедия, 2012] BDRip 720p, Dub

salma3

26 | 3

4.37 ГБ

В этой теме нет новых непрочитанных сообщений. Белка и Стрелка: Лунные приключения [мультфильм, комедия, приключения, семейный, 2013] BDRip 720p | [Лицензия]

Dracon

430 | 13

2.91 ГБ

В этой теме нет новых непрочитанных сообщений. Полетта / Paulette [комедия, 2012] BDRip 720p, Dub+Sub [Лицензия]

Dracon

8 | 2

4.6 ГБ

В этой теме нет новых непрочитанных сообщений. Не входить, мы не одеты / Do Not Disturb [комедия, 2012] BDRip 720p, Mvo [Лицензия]

salma3

39 | 3

3.88 ГБ


Начать новую тему Ответить на тему  [ 1 сообщение ] 




Для Мосгорсуда, Роскомнадзора и рекламодателей:: mosgorsud-torrent[собачка]yandex.ru