Торрент файл
скачать торрент магнет ссылка Добавлен: 24 ноя 2012, 00:13
Размер: 1.46 ГБ
Сидеров: 308
Личеров: 10
Статус: (Aleksandr.ru)
Автор

СообщениеДобавлено: 24 ноя 2012, 00:13 

Не в сети
Супермодератор
Аватара пользователя
Дата регистрации:
15 фев 2012, 16:44
Возраст: 27
Спасибо: 5143 / 2090
Сообщения: 17513
Искатели приключений

Страна: Россия
Жанр:комедия, приключения
Год выпуска: 2012
Продолжительность:: 01:41:15
Перевод: не требуется
Оригинальная аудиодорожка: русский
Cубтитры: нет
Режиссер: Максим Воронков
В ролях: Валерия Кудрявцева, Анатолий Пашинин, Игорь Гаспарян, Александр Яцко, Владимир Зайцев, Илья Олейников, Александр Семчев, Иннокентий Тарабара, Юрий Кузнецов-Таёжный, Николай Дроздов...

Описание: Что может быть опаснее, чем поиски сокровищ? Если ты готов к схваткам с местными гангстерами, погоням и другим острым ощущениям — дерзай! Так и сделали трое азартных друзей — пилот Дэн, гонщик Сергей и красавица Софи, отправившись в экзотический Тайланд на поиски затонувшего сундука с драгоценностями монахов. Следуя указателям на карте, оставленной Софи ее дедушкой, троица зафрахтовав яхту, выходит в открытое море….





Исходник: DVD9 R5
Тип релиза: DVDRip
Контейнер: AVI
Видео: 688x400 (1.720:1), 25 fps, XviD ~ 1603 kbps avg, 0.151 bit/pixel
Аудио: 48 kHz, MP3, 6 ch, 448.00 kbps

Раздача от:

Общее
Полное имя: Iskateli.priklutsheniy.2012.O.DVDRip_[Youtracker]_by_avproh.avi
Формат: AVI
Формат/Информация: Audio Video Interleave
Размер файла: 1,46 Гбайт
Продолжительность: 1 ч. 41 м.
Общий поток: 2060 Кбит/сек
Программа кодирования: VirtualDubMod 1.5.10.3 | http://www.virtualdub-fr.org || (build 2550/release)
Библиотека кодирования: VirtualDubMod build 2550/release

Видео
Идентификатор: 0
Формат: MPEG-4 Visual
Профиль формата: Advanced Simple@L5
Параметр BVOP формата: 1
Параметр QPel формата: Нет
Параметр GMC формата: Без точки перехода
Параметр матрицы формата: Выборочная
Идентификатор кодека: XVID
Идентификатор кодека/Подсказка: XviD
Продолжительность: 1 ч. 41 м.
Битрейт: 1603 Кбит/сек
Ширина: 688 пикселей
Высота: 400 пикселей
Соотношение сторон: 1,720
Частота кадров: 25,000 кадров/сек
Цветовое пространство: YUV
Субдискретизация насыщенности: 4:2:0
Битовая глубина: 8 бит
Тип развёртки: Прогрессивная
Метод сжатия: С потерями
Бит/(Пиксели*Кадры): 0.233
Размер потока: 1,13 Гбайт (78%)
Библиотека кодирования: XviD 65

Аудио
Идентификатор: 1
Формат: AC-3
Формат/Информация: Audio Coding 3
Расширение режима: CM (complete main)
Параметр Endianness формата: Big
Идентификатор кодека: 2000
Продолжительность: 1 ч. 41 м.
Вид битрейта: Постоянный
Битрейт: 448 Кбит/сек
Каналы: 6 каналов
Расположение каналов: Front: L C R, Side: L R, LFE
Частота: 48,0 КГц
Битовая глубина: 16 бит
Метод сжатия: С потерями
Размер потока: 324 Мбайт (22%)
Выравнивание: Разделение по промежуткам
Продолжительность промежутка: 40мс. (1,00 видеокадр)
Время предзагрузки промежутка: 500мс.







реклама партнёра


Вернуться к началу
 Профиль Отправить личное сообщение  
 
   Похожие торренты   Автор   Торрент   Размер 
В этой теме нет новых непрочитанных сообщений. Последние искатели приключений / The Last Riders [боевик, драма, 1992] DVDRip, Avo

salma3

41 | 4

1.46 ГБ

В этой теме нет новых непрочитанных сообщений. Король приключений / Adventure King [Боевик, приключения, 1996] DVDRip, Mvo

salma3

45 | 4

746.59 МБ

В этой теме нет новых непрочитанных сообщений. В поисках приключений / The Quest [боевик, приключения, 1996] BDRip, Mvo

salma3

23 | 2

1.45 ГБ

В этой теме нет новых непрочитанных сообщений. Форт Росс: В поисках приключений [Приключения, 2014] WEBRip

Dracon

2149 | 143

1.37 ГБ

В этой теме нет новых непрочитанных сообщений. Форт Росс: В поисках приключений [Приключения, 2014] DVD5 [Лицензия]

Dracon

161 | 10

4.24 ГБ

В этой теме нет новых непрочитанных сообщений. Форт Росс: В поисках приключений [Приключения, 2014] WEB-DLRip 720p

Dracon

166 | 5

2.84 ГБ

В этой теме нет новых непрочитанных сообщений. В поисках приключений / The Quest [боевик, приключения, 1996] BDRip 720, 2Mvo+Dvo+Sub

salma3

19 | 4

3 ГБ


Начать новую тему Ответить на тему  [ 1 сообщение ] 




Для Мосгорсуда, Роскомнадзора и рекламодателей:: mosgorsud-torrent[собачка]yandex.ru