Торрент файл
скачать торрент магнет ссылка Добавлен: 18 ноя 2012, 21:26
Размер: 2.8 ГБ
Сидеров: 0
Личеров: 2
Статус: (Aleksandr.ru)
Автор

СообщениеДобавлено: 18 ноя 2012, 21:26 

Не в сети
5 Звёзд
Аватара пользователя
Дата регистрации:
20 апр 2012, 10:59
Возраст: 35
Спасибо: 941 / 102
Сообщения: 1292
Откуда: Москва

Страна: Россия
Жанр:медиаопера, фэнтези
Год выпуска: 2011
Продолжительность: 01:11:23

Перевод: Не требуется
Cубтитры: нет
Оригинальная аудиодорожка: несуществующий язык

Режиссер: Ираида Юсупова / Iraida Yusupova , Александр Долгин / Alexander Dolgin

В ролях: Елена Лукьянчикова
Лариса Субботина
Антонио Грамши
Вилли Мельников
Герман Виноградов
Ярослав Садовский
Стивен Сеймур
Юрий Петкевич
Святослав Пономарёв
Светлана Шевелёва
Анастасия Браудо
etc

Описание: Группа ученых ставит эксперименты над птицами, превращая их в совершенных женщин-роботов. Что же будет с ними в меркантильном жестоком мире, в котором абсолютно все покупается и продается?
Действие в фильме происходит на вымышленном несуществующем языке, представляющем собой смесь редких, древних, искусственно сконструированных и сымпровизированных языков, а также фрагментов некоторых опознаваемых языков. Каждый зритель поймёт фильм по-своему, а то, что останется недопонятым, будет сохраняться в его памяти красивой тайной, которая впоследствии обязательно откроется.

автор сценария - Ираида Юсупова
written by Iraida Yusupova

режиссёры - Ираида Юсупова и Александр Долгин
directed by Iraida Yusupova & Alexander Dolgin

оператор постановщик - Александр Долгин
director of photography Alexander Dolgin

композитор - Ираида Юсупова
composer Iraida Yusupova

визуальные эффекты и анимация - Александр Долгин
visual effects & animation Alexander Dolgin

монтаж видео и саунд-дизайн - Ираида Юсупова
edit & sound-design Iraida Yusupova

В фильме снимались

Елена Лукьянчикова
Лариса Субботина
Антонио Грамши
Вилли Мельников
Герман Виноградов
Ярослав Садовский
Стивен Сеймур
Юрий Петкевич
Святослав Пономарёв
Светлана Шевелёва
Анастасия Браудо
Роман Таиров
Константин Косенков
Юлия Лукина
Юлия Савина
Лана Конькова экс Аксёнова
Каролина Евстигнеева
Наталья Павлова
Вера Павлова
Ольга Шаламова
Дарья Орехова
Диляра Габитова
Юлиана Бачманова
Владимир Садовский
Кристина Орджоникидзе
Антон Акимов
Вера Перминова
Павел Перминов
Екатерина Досина
Дмитрий Чеглаков
Анастасия Занадворнова
Константин Губский
Павел Лабазов
Евгения Шерснева
Филлип Боллоев
Данила Пластунов
Мария Шеманова
Елизавета Алексеева
Наталья Анастасьева
Адам Талин
Алла Биндер
Лилия Белогурова
Александр Сосланд
Наиля Алпарова
Павел Луцкер
Елена Николаева
Владимир Корндорф
Владимир Орехов

FX-Квартет:
Евгений Субботин
Анна Кобзарёва
Шамил Саидов
Илья Рубинштейн

удав Честерфилд
черепаха Зебулон

Запись музыки:
Дмитрий Чеглаков
FX-Квартет
Татьяна Вымятнина
Ярослав Садовский
Анастасия Браудо
Светлана Шевелёва
Святослав Пономарёв
Ираида Юсупова
Антонио Грамши
Мария Шеманова
Елизавета Алексеева
Лана Конькова экс Аксёнова
Яна Аксёнова

в фильме использована
композиция Ираиды Юсуповой "Крылья",
записанная Российским Национальным Оркестром
(дирижёр Марк Кадин) в студии "Классическая звукозапись Петра Кондрашина"
(звукорежиссёр Пётр Кондрашин)(2001)

Anna Theremins Museum Studio 2011

Качество видео: HD-AVC
Формат видео: MP4

Видео: AVC , 1920x1080 , 16:9 , 25fps , ~ 5 477 Kbps , ~ 0.106 Bits/Pixel
Аудио: AAC , 48.0 KHz , 2 channels , L R , variable , max bit rate ~ 186 Kbps


General
Complete name: Birds.mp4
Format: MPEG-4
Format profile: Base Media / Version 2
Codec ID: mp42
File size: 2.80 GiB
Duration: 1h 11mn
Overall bit rate mode: Variable
Overall bit rate: 5 609 Kbps
Encoded date: UTC 2011-09-09 09:52:16
Tagged date: UTC 2011-09-09 09:52:16
©TIM: 00:00:00:00
©TSC: 25
©TSZ: 1

Video
ID: 1
Format: AVC
Format/Info: Advanced Video Codec
Format profile: High@L5.1
Format settings, CABAC: Yes
Format settings, ReFrames: 3 frames
Format settings, GOP: M=3, N=33
Codec ID: avc1
Codec ID/Info: Advanced Video Coding
Duration: 1h 11mn
Bit rate: 5 477 Kbps
Width: 1 920 pixels
Height: 1 080 pixels
Display aspect ratio: 16:9
Frame rate mode: Constant
Frame rate: 25.000 fps
Standard: PAL
Color space: YUV
Chroma subsampling: 4:2:0
Bit depth: 8 bits
Scan type: Progressive
Bits/(Pixel*Frame): 0.106
Stream size: 2.73 GiB (98%)
Language: English
Encoded date: UTC 2011-09-09 09:52:16
Tagged date: UTC 2011-09-09 09:52:16
Color primaries: BT.709-5, BT.1361, IEC 61966-2-4, SMPTE RP177
Transfer characteristics: BT.709-5, BT.1361
Matrix coefficients: BT.709-5, BT.1361, IEC 61966-2-4 709, SMPTE RP177

Audio
ID: 2
Format: AAC
Format/Info: Advanced Audio Codec
Format profile: HE-AAC / LC
Codec ID: 40
Duration: 1h 11mn
Bit rate mode: Variable
Bit rate: 127 Kbps
Maximum bit rate: 186 Kbps
Channel(s): 2 channels
Channel positions: Front: L R
Sampling rate: 48.0 KHz / 24.0 KHz
Compression mode: Lossy
Stream size: 64.7 MiB (2%)
Language: English
Encoded date: UTC 2011-09-09 09:52:16
Tagged date: UTC 2011-09-09 09:52:16
Material_Duration: 4283435
Material_StreamSize: 67832204





реклама партнёра


Вернуться к началу
 Профиль Отправить личное сообщение  
 
   Похожие торренты   Автор   Торрент   Размер 
В этой теме нет новых непрочитанных сообщений. Огненные птицы / Fire Birds [Боевик, приключения, 1990] HDRip, Avo

salma3

67 | 3

1.46 ГБ

В этой теме нет новых непрочитанных сообщений. Огненные птицы / Fire Birds [Боевик, Приключения, 1990] BDRip 720p, Avo

salma3

32 | 0

3.38 ГБ

В этой теме нет новых непрочитанных сообщений. Элитные вертолеты. Хищные птицы / Elite choppers. Birds of prey / 2 серии из 2 [документальный, авиация, вертолеты, 2005] IPTVRip, Avo

salma3

59 | 9

1.41 ГБ

В этой теме нет новых непрочитанных сообщений. Angry Birds в кино / The Angry Birds Movie [Мультфильм, боевик, комедия, семейный, 2016] BDRip 720p, Dub+Sub [iTunes]

salma3

12 | 1

4.76 ГБ

В этой теме нет новых непрочитанных сообщений. Angry Birds в кино / Angry Birds (2016) WEBRip [H.264/720p-LQ]

marya111

82 | 5

2.33 ГБ

В этой теме нет новых непрочитанных сообщений. Angry Birds в кино / The Angry Birds Movie (2016) ТС

marya111

238 | 0

1.46 ГБ

В этой теме нет новых непрочитанных сообщений. Индюки: Назад в будущее / Free Birds [Мультфильм, фэнтези, комедия ,2013] BDRip 1080p, Dub [3D-Video | Лицензия]

Dracon

1292 | 78

6.41 ГБ


Начать новую тему Ответить на тему  [ 1 сообщение ] 




Для Мосгорсуда, Роскомнадзора и рекламодателей:: mosgorsud-torrent[собачка]yandex.ru