Торрент файл
скачать торрент магнет ссылка Добавлен: 18 ноя 2012, 21:17
Размер: 1.1 ГБ
Сидеров: 0
Личеров: 3
Статус: (Aleksandr.ru)
Автор

СообщениеДобавлено: 18 ноя 2012, 21:17 

Не в сети
5 Звёзд
Аватара пользователя
Дата регистрации:
20 апр 2012, 10:59
Возраст: 36
Спасибо: 959 / 102
Сообщения: 1289
Откуда: Москва

Страна: Россия
Жанр:медиаопера, фэнтези
Год выпуска: 2011
Продолжительность: 01:11:23

Перевод: Не требуется
Cубтитры: нет
Оригинальная аудиодорожка: несуществующий язык

Режиссер: Ираида Юсупова / Iraida Yusupova , Александр Долгин / Alexander Dolgin

В ролях: Елена Лукьянчикова
Лариса Субботина
Антонио Грамши
Вилли Мельников
Герман Виноградов
Ярослав Садовский
Стивен Сеймур
Юрий Петкевич
Святослав Пономарёв
Светлана Шевелёва
Анастасия Браудо
etc

Описание: Группа ученых ставит эксперименты над птицами, превращая их в совершенных женщин-роботов. Что же будет с ними в меркантильном жестоком мире, в котором абсолютно все покупается и продается?

Действие в фильме происходит на вымышленном несуществующем языке, представляющем собой смесь редких, древних, искусственно сконструированных и сымпровизированных языков, а также фрагментов некоторых опознаваемых языков. Каждый зритель поймёт фильм по-своему, а то, что останется недопонятым, будет сохраняться в его памяти красивой тайной, которая впоследствии обязательно откроется.

автор сценария - Ираида Юсупова
written by Iraida Yusupova

режиссёры - Ираида Юсупова и Александр Долгин
directed by Iraida Yusupova & Alexander Dolgin

оператор постановщик - Александр Долгин
director of photography Alexander Dolgin

композитор - Ираида Юсупова
composer Iraida Yusupova

визуальные эффекты и анимация - Александр Долгин
visual effects & animation Alexander Dolgin

монтаж видео и саунд-дизайн - Ираида Юсупова
edit & sound-design Iraida Yusupova

В фильме снимались

Елена Лукьянчикова
Лариса Субботина
Антонио Грамши
Вилли Мельников
Герман Виноградов
Ярослав Садовский
Стивен Сеймур
Юрий Петкевич
Святослав Пономарёв
Светлана Шевелёва
Анастасия Браудо
Роман Таиров
Константин Косенков
Юлия Лукина
Юлия Савина
Лана Конькова экс Аксёнова
Каролина Евстигнеева
Наталья Павлова
Вера Павлова
Ольга Шаламова
Дарья Орехова
Диляра Габитова
Юлиана Бачманова
Владимир Садовский
Кристина Орджоникидзе
Антон Акимов
Вера Перминова
Павел Перминов
Екатерина Досина
Дмитрий Чеглаков
Анастасия Занадворнова
Константин Губский
Павел Лабазов
Евгения Шерснева
Филлип Боллоев
Данила Пластунов
Мария Шеманова
Елизавета Алексеева
Наталья Анастасьева
Адам Талин
Алла Биндер
Лилия Белогурова
Александр Сосланд
Наиля Алпарова
Павел Луцкер
Елена Николаева
Владимир Корндорф
Владимир Орехов

FX-Квартет:
Евгений Субботин
Анна Кобзарёва
Шамил Саидов
Илья Рубинштейн

удав Честерфилд
черепаха Зебулон

Запись музыки:
Дмитрий Чеглаков
FX-Квартет
Татьяна Вымятнина
Ярослав Садовский
Анастасия Браудо
Светлана Шевелёва
Святослав Пономарёв
Ираида Юсупова
Антонио Грамши
Мария Шеманова
Елизавета Алексеева
Лана Конькова экс Аксёнова
Яна Аксёнова

в фильме использована
композиция Ираиды Юсуповой "Крылья",
записанная Российским Национальным Оркестром
(дирижёр Марк Кадин) в студии "Классическая звукозапись Петра Кондрашина"
(звукорежиссёр Пётр Кондрашин)(2001)

Anna Theremins Museum Studio 2011

Качество видео: HDRip
Формат видео: AVI

Видео: 720x400 (1.80:1), 25 fps, XviD, ~2005 kbps avg, 0.28 bit/pixel
Аудио: 48 kHz, MPEG Layer 3, 2 ch, ~192.00 kbps avg


General
Complete name: Birds.avi
Format: AVI
Format/Info: Audio Video Interleave
Format profile: OpenDML
File size: 1.10 GiB
Duration: 1h 11mn
Overall bit rate: 2 204 Kbps

Video
ID: 0
Format: MPEG-4 Visual
Format profile: Simple@L3
Format settings, BVOP: No
Format settings, QPel: No
Format settings, GMC: No warppoints
Format settings, Matrix: Default (H.263)
Codec ID: DX50
Codec ID/Hint: DivX 5
Duration: 1h 11mn
Bit rate: 1 995 Kbps
Width: 720 pixels
Height: 400 pixels
Display aspect ratio: 16:9
Frame rate: 25.000 fps
Color space: YUV
Chroma subsampling: 4:2:0
Bit depth: 8 bits
Scan type: Progressive
Compression mode: Lossy
Bits/(Pixel*Frame): 0.277
Stream size: 1 019 MiB (91%)
Writing library: XviD 1.2.1 (UTC 2008-12-04)

Audio
ID: 1
Format: MPEG Audio
Format version: Version 1
Format profile: Layer 3
Mode: Joint stereo
Mode extension: MS Stereo
Codec ID: 55
Codec ID/Hint: MP3
Duration: 1h 11mn
Bit rate mode: Constant
Bit rate: 192 Kbps
Channel(s): 2 channels
Sampling rate: 48.0 KHz
Compression mode: Lossy
Stream size: 8.86 MiB (1%)
Alignment: Aligned on interleaves
Interleave, duration: 265 ms (6.64 video frames)
Writing library: LAME3.98.2





реклама партнёра


Вернуться к началу
 Профиль Отправить личное сообщение  
 
   Похожие торренты   Автор   Торрент   Размер 
В этой теме нет новых непрочитанных сообщений. Огненные птицы / Fire Birds [Боевик, приключения, 1990] HDRip, Avo

salma3

67 | 3

1.46 ГБ

В этой теме нет новых непрочитанных сообщений. Огненные птицы / Fire Birds [Боевик, Приключения, 1990] BDRip 720p, Avo

salma3

32 | 0

3.38 ГБ

В этой теме нет новых непрочитанных сообщений. Angry Birds в кино / The Angry Birds Movie [Мультфильм, боевик, комедия, семейный, 2016] BDRip 720p, Dub+Sub [iTunes]

salma3

7 | 1

4.76 ГБ

В этой теме нет новых непрочитанных сообщений. Angry Birds в кино / Angry Birds (2016) WEBRip [H.264/720p-LQ]

marya111

82 | 5

2.33 ГБ

В этой теме нет новых непрочитанных сообщений. Angry Birds в кино / The Angry Birds Movie (2016) ТС

marya111

238 | 0

1.46 ГБ

В этой теме нет новых непрочитанных сообщений. Любовные пташки / Love Birds [Комедия, мелодрама, 2011] ВDRip 720р, Avo

salma3

21 | 11

4.36 ГБ

В этой теме нет новых непрочитанных сообщений. Le Ciel, les oiseaux et ta femme / Небо, птицы и женщина (Yannick Perrin, JTC Video) [2002 г., All Sex, Feature, Anal, Oral, DVDRip]

salma3

27 | 9

695.89 МБ


Начать новую тему Ответить на тему  [ 1 сообщение ] 




Для Мосгорсуда, Роскомнадзора и рекламодателей:: mosgorsud-torrent[собачка]yandex.ru