Торрент файл
скачать торрент магнет ссылка Добавлен: 18 ноя 2012, 21:10
Размер: 1.37 ГБ
Сидеров: 9
Личеров: 5
Статус: (Aleksandr.ru)
Автор

СообщениеДобавлено: 18 ноя 2012, 21:10 

Не в сети
5 Звёзд
Аватара пользователя
Дата регистрации:
20 апр 2012, 10:59
Возраст: 35
Спасибо: 941 / 102
Сообщения: 1292
Откуда: Москва

Информация о фильме
Название: Проект "Альфа"
Год выхода: 1990
Жанр: Боевик
Режиссер: Евгений Шерстобитов
В ролях: Юрий Маляров, Светлана Дирина, Софья Горшкова, Борис Руднев, Георгий Дворников, Анатолий Веденкин, Николай Малашенко, Али Самедов, Александр Жуковин, Анатолий Голик, Анатолий Лукьяненко, Виктор Чеботарев

О фильме:
Капитан Чайка обнаруживает в советских территориальных водах установленные западными разведслужбами радиобуи и подвергается нападению. Отразив врага, экипаж благополучно доставляет радиобуй на борт корабля.



Страна: СССР
Студия: Кинематографист
Продолжительность: 01:25:03
Перевод: Оригинал

Файл
Кодек: XviD
Качество: DVDRip
Видео: 544x416, 1921 kbps, 25 fps
Звук: AC3, 6 ch, 384 kbps, 48.0 khz

General
Complete name : C:proekt.alfa.1990.XviD.DVDRip.avi
Format : AVI
Format/Info : Audio Video Interleave
File size : 1.37 GiB
Duration : 1h 25mn 03s
Overall bit rate : 2 312 Kbps
Writing application : VirtualDubMod 1.5.4.1 (build 2178/release)
Writing library : VirtualDubMod build 2178/release
Video #0
ID : 0
Format : MPEG-4 Visual
Format profile : Advanced Simple@L5
Format settings, BVOP : 1
Format settings, QPel : No
Format settings, GMC : No warppoints
Format settings, Matrix : Custom
Codec ID : XVID
Codec ID/Hint : XviD
Duration : 1h 25mn 03s
Bit rate : 1 921 Kbps
Width : 544 pixels
Height : 416 pixels
Display aspect ratio : 4:3
Frame rate : 25.000 fps
Color space : YUV
Chroma subsampling : 4:2:0
Bit depth : 8 bits
Scan type : Progressive
Compression mode : Lossy
Bits/(Pixel*Frame) : 0.340
Stream size : 1.14 GiB (83%)
Writing library : XviD 64
Audio #1
ID : 1
Format : AC-3
Format/Info : Audio Coding 3
Mode extension : CM (complete main)
Format settings, Endianness : Big
Codec ID : 2000
Duration : 1h 25mn 03s
Bit rate mode : Constant
Bit rate : 384 Kbps
Channel(s) : 6 channels
Channel positions : Front: L C R, Side: L R, LFE
Sampling rate : 48.0 KHz
Bit depth : 16 bits
Compression mode : Lossy
Stream size : 234 MiB (17%)
Alignment : Split accross interleaves
Interleave, duration : 96 ms (2.40 video frames)
Interleave, preload duration : 96 ms





Релиз от:




реклама партнёра


Вернуться к началу
 Профиль Отправить личное сообщение  
 
   Похожие торренты   Автор   Торрент   Размер 
В этой теме нет новых непрочитанных сообщений. Проект Альфа / Яблочное зёрнышко Альфа / Appleseed Alpha [Аниме, Мультфильм, Приключения, 2014] HDRip, Mvo [iTunes]

Dracon

662 | 18

1.37 ГБ

В этой теме нет новых непрочитанных сообщений. Проект Альфа / Appleseed Alpha [Аниме, Мультфильм, Приключения, 2014] BDRip 720p, Mvo+Sub [iTunes]

Dracon

361 | 6

4.24 ГБ

В этой теме нет новых непрочитанных сообщений. Проект Альфа / Appleseed Alpha [Аниме, Мультфильм, Приключения, 2014] BDRip 1080p, Mvo+Sub [iTunes]

Dracon

270 | 11

8.38 ГБ

В этой теме нет новых непрочитанных сообщений. Междоусобный проект / Смертельный проект / The Internecine Project [Триллер, 1974] DVDRip, Avo

salma3

23 | 3

1.46 ГБ

В этой теме нет новых непрочитанных сообщений. Проект Золотой глаз [01-04 из 04] [Боевик, приключения, 2014] SATRip

Dracon

183 | 10

2.29 ГБ

В этой теме нет новых непрочитанных сообщений. Комендантский час / Martial Law [Боевик, 1990] DVDRip-AVC, Mvo+Avo

salma3

6 | 3

2.02 ГБ

В этой теме нет новых непрочитанных сообщений. Мой научный проект / My Science Project [фантастика, боевик, комедия, приключения, 1985] BDRip, Mvo

salma3

23 | 4

1.46 ГБ


Начать новую тему Ответить на тему  [ 1 сообщение ] 




Для Мосгорсуда, Роскомнадзора и рекламодателей:: mosgorsud-torrent[собачка]yandex.ru