Торрент файл
скачать торрент магнет ссылка Добавлен: 27 сен 2012, 10:05
Размер: 1.45 ГБ
Сидеров: 16
Личеров: 4
Автор

СообщениеДобавлено: 27 сен 2012, 10:05 

Не в сети
Зам. Админа
Аватара пользователя
Дата регистрации:
02 дек 2010, 12:39
Спасибо: 12461 / 214
Сообщения: 27968
Страна: Россия
Год выпуска: 2011
Жанр:криминал
Продолжительность: 01:29:21

Режиссер: Максим Бриус

В ролях: Ксения (Оксана) Скакун, Евгений Пронин, Алексей Осипов (II), Дарья Чернявская, Ирина Крецу

Описание: Паша Раевский – лейтенант милиции – развелся с женой и переехал в коммунальную квартиру. Его соседями по коммуналке оказались стриптизерша Вика и недавно вернувшийся после очередной отсидки Виктор. Поначалу отношения соседей складывались почти враждебно. Но случается так, что подруга Вики Ирина становится свидетельницей убийства крупного криминального авторитета Андрона. И в панике приезжает к Вике. Туда же за ней приезжают бандиты. Девушек спасает неожиданно вернувшийся домой Виктор. Он убивает одного из бандитов и вместе с девушками пускается в бега. У беглецов нет другого выхода, кроме как обратиться за помощью к своему соседу Паше. В итоге все жители коммунальной квартиры оказываются втянуты в бандитские разборки. По одиночке им не справиться, и они вынуждены держаться друг друга.





Исходник: DVD5 R5
Качество видео: DVDRip-AVC
Формат видео: MKV
Видео: 720x566 -> 1006х566 (16:9), 25 fps, H264 ~ 1870 kbps avg, 0.184 bit/pixel
Аудио: 48 kHz, AC3, 6 ch, 448.00 kbps
Раздача от:

Общее
Полное имя: Kommunalka.2011Kommunalka.2011.DVDRip-AVC.mkv
Формат: Matroska
Версия формата: Version 2
Размер файла: 1,45 Гбайт
Продолжительность: 1 ч. 29 м.
Общий поток: 2319 Кбит/сек
Название фильма: Kommunalka.2011.DVDRip-AVC AVP Studio
Дата кодирования: UTC 2012-03-25 07:11:54
Программа кодирования: mkvmerge v5.2.0 ('I can't explain') built on Dec 18 2011 18:12:03
Библиотека кодирования: libebml v1.2.3 + libmatroska v1.3.0

Видео
Идентификатор: 1
Формат: AVC
Формат/Информация: Advanced Video Codec
Профиль формата: High@L4.1
Параметр CABAC формата: Да
Параметр ReFrames формата: 6 кадров
Идентификатор кодека: V_MPEG4/ISO/AVC
Продолжительность: 1 ч. 29 м.
Битрейт: 1870 Кбит/сек
Ширина: 720 пикселей
Высота: 566 пикселей
Соотношение сторон: 16:9
Частота кадров: 25,000 кадров/сек
Цветовое пространство: YUV
Субдискретизация насыщенности: 4:2:0
Битовая глубина: 8 бит
Тип развёртки: Прогрессивная
Бит/(Пиксели*Кадры): 0.184
Размер потока: 1,14 Гбайт (79%)
Заголовок: Источник DVD
Библиотека кодирования: x264 core 119 r2106 07efeb4
Настройки программы: cabac=1 / ref=6 / deblock=1:-2:-1 / analyse=0x3:0x113 / me=umh / subme=9 / psy=1 / psy_rd=1.00:0.10 / mixed_ref=1 / me_range=32 / chroma_me=1 / trellis=1 / 8x8dct=1 / cqm=0 / deadzone=21,11 / fast_pskip=1 / chroma_qp_offset=-3 / threads=3 / sliced_threads=0 / nr=0 / decimate=1 / interlaced=0 / bluray_compat=0 / constrained_intra=0 / bframes=6 / b_pyramid=2 / b_adapt=1 / b_bias=0 / direct=3 / weightb=1 / open_gop=0 / weightp=0 / keyint=250 / keyint_min=25 / scenecut=40 / intra_refresh=0 / rc_lookahead=60 / rc=2pass / mbtree=1 / bitrate=1870 / ratetol=1.0 / qcomp=0.60 / qpmin=0 / qpmax=69 / qpstep=4 / cplxblur=20.0 / qblur=0.5 / ip_ratio=1.40 / aq=1:1.00
Язык: Russian
Default: Да
Forced: Нет

Аудио
Идентификатор: 2
Формат: AC-3
Формат/Информация: Audio Coding 3
Расширение режима: CM (complete main)
Идентификатор кодека: A_AC3
Продолжительность: 1 ч. 29 м.
Вид битрейта: Постоянный
Битрейт: 448 Кбит/сек
Каналы: 6 каналов
Расположение каналов: Front: L C R, Side: L R, LFE
Частота: 48,0 КГц
Битовая глубина: 16 бит
Метод сжатия: С потерями
Размер потока: 288 Мбайт (19%)
Заголовок: Источник DVD
Язык: Russian
Default: Да
Forced: Нет

Меню
00:00:00.000: ru:00:00:00.000000000
00:05:00.000: :00:05:00.000000000
00:10:00.000: :00:10:00.000000000
00:15:00.000: :00:15:00.000000000
00:20:00.000: :00:20:00.000000000
00:25:00.000: :00:25:00.000000000
00:30:00.000: :00:30:00.000000000
00:35:00.000: :00:35:00.000000000
00:40:00.000: :00:40:00.000000000
00:45:00.000: :00:45:00.000000000
00:50:00.000: :00:50:00.000000000
00:55:00.000: :00:55:00.000000000
01:00:00.000: :01:00:00.000000000
01:05:00.000: :01:05:00.000000000
01:10:00.000: :01:10:00.000000000
01:15:00.000: :01:15:00.000000000
01:20:00.000: :01:20:00.000000000
01:25:00.000: :01:25:00.000000000






реклама партнёра


Вернуться к началу
 Профиль  
 
   Похожие торренты   Автор   Торрент   Размер 
В этой теме нет новых непрочитанных сообщений. Коммуналка [Серия 1-4 из 4] (Анарио Мамедов) [Драма, 2015] SATRip

Dracon

28 | 4

2.52 ГБ

В этой теме нет новых непрочитанных сообщений. Маска / Mugamoodi [боевик, комедия, криминал, 2011] DVDRip, sub

salma3

3 | 5

1.46 ГБ

В этой теме нет новых непрочитанных сообщений. Опережая выстрел [1-8 из 8] [Боевик, криминал, детектив,2011] DVDRip

iopuk60

0 | 10

4.34 ГБ

В этой теме нет новых непрочитанных сообщений. Мало вариантов / Few Options [драма, криминал, 2011] DVDRip, Mvo [НТВ+]

salma3

5 | 3

1.37 ГБ

В этой теме нет новых непрочитанных сообщений. Отдел специальных расследований / Teuk-soo-bon [триллер, криминал, 2011] DVDRip, Avo

salma3

1 | 4

1.7 ГБ

В этой теме нет новых непрочитанных сообщений. Грязный маленький обман / Dirty Little Trick [криминал, 2011] DVDRip, Avo

salma3

8 | 2

698.56 МБ

В этой теме нет новых непрочитанных сообщений. Двойная забава / Double Dhamaal [Драма, комедия, криминал, 2011] DVDRip, Dub

salma3

8 | 6

2.05 ГБ


Начать новую тему Ответить на тему  [ 1 сообщение ] 




Для Мосгорсуда, Роскомнадзора и рекламодателей:: mosgorsud-torrent[собачка]yandex.ru