Торрент файл
скачать торрент магнет ссылка Добавлен: 04 сен 2012, 20:06
Размер: 745.2 МБ
Сидеров: 34
Личеров: 7
Статус: (Dracon)
Автор

СообщениеДобавлено: 04 сен 2012, 20:06 

Не в сети
Зам. Админа
Аватара пользователя
Дата регистрации:
02 дек 2010, 12:39
Спасибо: 12461 / 214
Сообщения: 27968

Год выхода: 2012
Жанр: мелодрама, комедия
Режиссер: Валентина Власова
В ролях: Ксения Роменкова, Артем Ткаченко, Алексей Колубков, Екатерина Сахарова, Артем Артемьев, Александр Костелов

О фильме:
Юлия — «городская штучка»: помешана на карьере, живет согласно четкому плану, комфорт — превыше всего.

Ради очередного повышения Юлия отправляется в далекую провинцию. Она должна выкупить землю, на которой разбиты виноградники. Но владелец виноградников, Виктор, категорически не хочет их продавать.

Виктор подвергает Юлю изощренным «сельским испытаниям». Юля, на своих высоченных шпильках, умеет карабкаться по карьерной лестнице. Но сможет ли она преодолеть навозные кучи, залезть на сосну, чтоб позвонить по мобильному, и самостоятельно выловить из моря ужин?

Удастся ли Виктору «укротить строптивую»? И сможет ли Юля ради любви отказаться от всего, что еще вчера составляло смысл ее жизни?


Страна: Россия
Продолжительность: 01:38:20
Перевод: Не требуется

Кодек: XviD / MP3
Качество: HDRip
Видео: 656x368 (1.78:1), 25 fps, XviD build 65 ~921 kbps avg, 0.15 bit/pixel
Звук: 48 kHz, MPEG Layer 3, 2 ch, ~128.00 kbps avg

Общее
Полное имя : D:Южные ночи_745Южные ночи_745.avi
Формат : AVI
Формат/Информация : Audio Video Interleave
Размер файла : 745 Мбайт
Продолжительность : 1 ч. 38 м.
Общий поток : 1060 Кбит/сек
Программа кодирования : VirtualDubMod 1.5.10.3 | http://www.virtualdub-fr.org || (build 2550/release)
Библиотека кодирования : VirtualDubMod build 2550/release

Видео
Идентификатор : 0
Формат : MPEG-4 Visual
Профиль формата : Advanced Simple@L5
Параметр BVOP формата : 1
Параметр QPel формата : Нет
Параметр GMC формата : Без точки перехода
Параметр матрицы формата : Выборочная
Идентификатор кодека : XVID
Идентификатор кодека/Подсказка : XviD
Продолжительность : 1 ч. 38 м.
Битрейт : 922 Кбит/сек
Ширина : 656 пикселей
Высота : 368 пикселей
Соотношение сторон : 16:9
Частота кадров : 25,000 кадров/сек
Цветовое пространство : YUV
Субдискретизация насыщенности : 4:2:0
Битовая глубина : 8 бит
Тип развёртки : Прогрессивная
Метод сжатия : С потерями
Бит/(Пиксели*Кадры) : 0.153
Размер потока : 648 Мбайт (87%)
Библиотека кодирования : XviD 65

Аудио
Идентификатор : 1
Формат : MPEG Audio
Версия формата : Version 1
Профиль формата : Layer 3
Идентификатор кодека : 55
Идентификатор кодека/Подсказка : MP3
Продолжительность : 1 ч. 38 м.
Вид битрейта : Постоянный
Битрейт : 128 Кбит/сек
Каналы : 2 канала
Частота : 48,0 КГц
Метод сжатия : С потерями
Размер потока : 90,0 Мбайт (12%)
Выравнивание : Соединение по промежуткам
Продолжительность промежутка : 40 мс. (1,00 видеокадр)
Время предзагрузки промежутка : 504 мс.
Библиотека кодирования : LAME3.98r
Настройки программы : -m s -V 4 -q 0 -lowpass 17 -b 128




реклама партнёра


Вернуться к началу
 Профиль  
 
   Похожие торренты   Автор   Торрент   Размер 
В этой теме нет новых непрочитанных сообщений. Секс на две ночи / Two Night Stand (Макс Николс) [Мелодрама, Комедия, 2014] HDRip, Mvo [Лицензия]

Dracon

725 | 34

1.35 ГБ

В этой теме нет новых непрочитанных сообщений. Под покровом ночи / В холоде ночи / In The Cold Of The Night [Триллер, мелодрама, детектив, 1990] DVDRip, Avo

salma3

2 | 1

1.45 ГБ

В этой теме нет новых непрочитанных сообщений. Дни и ночи / Days and Nights (Кристиан Камарго) [Драма, комедия, 2013] HDRip, Mvo

Dracon

664 | 68

1.37 ГБ

В этой теме нет новых непрочитанных сообщений. Секс на две ночи / Two Night Stand (Макс Николс / Max Nichols) [2014г., мелодрама, комедия, BDRip 720p] MVO

Alfredovich

75 | 9

4.63 ГБ

В этой теме нет новых непрочитанных сообщений. Байки из склепа: Демон ночи / Tales from the Crypt: Demon Knight [ужасы, фэнтези, триллер, комедия, 1995] HDRip, Mvo [R5]

salma3

31 | 6

1.46 ГБ

В этой теме нет новых непрочитанных сообщений. Кто там в ночи / Чужак в ночи / Ночной незнакомец / Stranger by Night [триллер, 1994] DVDRip, Mvo

salma3

4 | 4

703 МБ

В этой теме нет новых непрочитанных сообщений. Много шума из ничего / Much Ado About Nothing [драма, мелодрама, комедия, 2012] HDRip, Avo

salma3

23 | 3

746.71 МБ


Начать новую тему Ответить на тему  [ 1 сообщение ] 




Для Мосгорсуда, Роскомнадзора и рекламодателей:: mosgorsud-torrent[собачка]yandex.ru