Торрент файл
скачать торрент магнет ссылка Добавлен: 09 авг 2012, 00:33
Размер: 745.12 МБ
Сидеров: 65
Личеров: 5
Статус: (salma3)
Автор

СообщениеДобавлено: 09 авг 2012, 00:33 

Не в сети
Супермодератор
Аватара пользователя
Дата регистрации:
15 фев 2012, 16:44
Возраст: 28
Спасибо: 6593 / 2145
Сообщения: 44208

Страны: Россия
Жанр:драма
Год выпуска: 2012
Продолжительность: 01:23:11

Перевод: не требуеется
Cубтитры: нет

Режиссер: Авдотья Смирнова

В ролях: Анна Михалкова, Яна Троянова, Евгений Муравич, Геннадий Смирнов, Юлия Снигирь, Анна Пармас, Константин Шелестун, Любовь Аркус, Татьяна Рябоконь, Сергей Борисов...

Описание:С утра — работа в музее этнографии, вечером — новости по Рен-ТВ, по выходным — митинги и секс с бывшим мужем, научным работником среднего звена. Лиза — типичный представитель питерской интеллигенции. Вика — обычная провинциалка. Отпуск в Петербурге для нее — это водка, вечеринки и авантюры. Казалось, между ними нет ничего общего. Однако, по воле случая они встретились — и сошлись: вода и пламень, синий чулок и тусовщица, интеллигенция и народ. Лиза и Вика — две стороны одной медали по имени Россия.
«Кококо» — вечная комедия русской жизни!






Исходник: DVD5 R5
Качество: DVDRip
Формат: AVI

Видео: 656x352 (1.85:1), 25 fps, XVID ~ 1115 kbps avg, 0.193 bit/pixel
Аудио: 48 kHz, МР3, 2 ch, 448 kbps

Общее
Полное имя: Kokoko.2012.O.DVDRip.745MB_[Youtracker]_by_avproh.avi
Формат: AVI
Формат/Информация: Audio Video Interleave
Размер файла: 745 Мбайт
Продолжительность: 1 ч. 23 м.
Общий поток: 1252 Кбит/сек
Программа кодирования: VirtualDubMod 1.5.10.3 (build 2550/release)
Библиотека кодирования: VirtualDubMod build 2550/release

Видео
Идентификатор: 0
Формат: MPEG-4 Visual
Профиль формата: Advanced Simple@L5
Параметр BVOP формата: 1
Параметр QPel формата: Нет
Параметр GMC формата: Без точки перехода
Параметр матрицы формата: Выборочная
Идентификатор кодека: XVID
Идентификатор кодека/Подсказка: XviD
Продолжительность: 1 ч. 23 м.
Битрейт: 1115 Кбит/сек
Ширина: 656 пикселей
Высота: 352 пикселя
Соотношение сторон: 1,85:1
Частота кадров: 25,000 кадров/сек
Цветовое пространство: YUV
Субдискретизация насыщенности: 4:2:0
Битовая глубина: 8 бит
Тип развёртки: Прогрессивная
Метод сжатия: С потерями
Бит/(Пиксели*Кадры): 0.193
Размер потока: 663 Мбайт (89%)
Библиотека кодирования: XviD 65

Аудио
Идентификатор: 1
Формат: MPEG Audio
Версия формата: Version 1
Профиль формата: Layer 3
Режим: Joint stereo
Расширение режима: MS Stereo
Идентификатор кодека: 55
Идентификатор кодека/Подсказка: MP3
Продолжительность: 1 ч. 23 м.
Вид битрейта: Постоянный
Битрейт: 128 Кбит/сек
Каналы: 2 канала
Частота: 48,0 КГц
Метод сжатия: С потерями
Размер потока: 76,2 Мбайт (10%)
Выравнивание: Соединение по промежуткам
Продолжительность промежутка: 40мс. (1,00 видеокадр)
Время предзагрузки промежутка: 504мс.







реклама партнёра


Вернуться к началу
 Профиль Отправить личное сообщение  
 
   Похожие торренты   Автор   Торрент   Размер 
В этой теме нет новых непрочитанных сообщений. Ради Эллен / For Ellen [Драма, 2012] DVDRip-AVC, Dvo

salma3

0 | 0

1.14 ГБ

В этой теме нет новых непрочитанных сообщений. Козёл отпущения / The Scapegoat [драма, 2012] DVDRip, Dvo [НТВ+]

salma3

238 | 32

1.37 ГБ

В этой теме нет новых непрочитанных сообщений. Взрыв мозга / Bitchkram [драма, мелодрама, 2012] DVDRip, Avo

salma3

53 | 5

698.93 МБ

В этой теме нет новых непрочитанных сообщений. Искупление сердца / Redemption of the Heart [Драма, семейный, мелодрма, 2012] DVDRip, Mvo

salma3

56 | 24

1.35 ГБ

В этой теме нет новых непрочитанных сообщений. Алмазные мечты / Blood Money [Боевик, Триллер, Драма, 2012] DVDRip, Avo [zamez]

salma3

8 | 9

1.4 ГБ

В этой теме нет новых непрочитанных сообщений. Окончательный монтаж – дамы и господа! / Final Cut: Hölgyeim és uraim (Дьёрдь Пальфи) [2012, драма, мелодрама, комедия, эротика, DVDRip]

Nickolas3435

21 | 4

1.37 ГБ

В этой теме нет новых непрочитанных сообщений. Леди-детектив мисс Фрайни Фишер / Miss Fisher's Murder Mysteries [S01-02] [драма, криминал, детектив, 2012-2013] DVDRip, HDRip, Mvo

salma3

151 | 102

15.92 ГБ


Начать новую тему Ответить на тему  [ 1 сообщение ] 




Для Мосгорсуда, Роскомнадзора и рекламодателей:: mosgorsud-torrent[собачка]yandex.ru